找回密码

蓝光电影论坛

查看: 3488|回复: 464

[电影] [2017][美国][动作][变形金刚5:最后的骑士/变形金刚5:终极战士][3D左右半宽][1080P-25.21G][MKV]TrueHD.7.1

  [复制链接]
  • TA的每日心情
    开心
    2017-6-18 00:02
  • 签到天数: 64 天

    连续签到: 5 天

    [LV.6]常住居民II

    发表于 2017-9-25 08:30:00 | 显示全部楼层 |阅读模式

    马上注册,获取最新影视资讯,享用更多功能,让你轻松玩转高清论坛。

    您需要 登录 才可以下载或查看,没有帐号?立即加入

    x
    [2017][美国][动作][变形金刚5:最后的骑士/变形金刚5:终极战士][3D左右半宽][1080P-25.21G][MKV]TrueHD.7.1

    ◎影片基本信息
    ◎大  小 25.21G
    ◎清  晰  度 1080P
    ◎格  式 MKV
    ◎豆瓣评分 4.9
    ◎年  代 2017
    ◎译  名 变形金刚5:最后的骑士/变形金刚:终极战士(港)/变形金刚5:最终骑士(台)/变形金刚5/变5
    ◎片  名 Transformers: The Last Knight
    ◎产  地 美国
    ◎类  别 动作/科幻
    ◎语  言 英语
    ◎上映日期 2017-06-21(美国)/2017-06-23(中国大陆)
    ◎IMDb评分  5.3/tt3371366/
    ◎片  长 149分钟/150分钟(中国大陆)
    ◎导  演 迈克尔·贝 Michael Bay
    ◎主  演 马克·沃尔伯格 Mark Wahlberg
          伊莎贝拉·莫奈 Isabela Moner
          劳拉·哈德克 Laura Haddock
          安东尼·霍普金斯 Anthony Hopkins
          乔什·杜哈明 Josh Duhamel
          彼特·库伦 Peter Cullen
          约翰·古德曼 John Goodman
          斯坦利·图齐 Stanley Tucci
          桑地亚哥·卡布瑞拉 Santiago Cabrera
          吉尔·伯明翰 Gil Birmingham
          渡边谦 Ken Watanabe
          约翰·迪·玛吉欧 John Di Maggio
          弗兰克·维尔克 Frank Welker
          米彻·佩勒吉 Mitch Pileggi
    ◎影    片: Transformers.The.Last.Knight.2017.1080p.3D.BluRay.Half-SBS.x264.DTS-HD.MA.7.1-FGT

    ◎简介
      《变形金刚5:最后的骑士》打破了《变形金刚》系列的核心故事,重新定义了人们心目中的英雄形象。人类和变形金刚开战,擎天柱失踪,拯救未来的关键就埋藏在历史的秘密之中,那是地球上变形金刚的历史。拯救世界的责任落在一支非同寻常的队伍身上:凯德·伊格尔(马克·沃尔伯格饰)、大黄蜂、一位英国爵士(安东尼·霍普金斯饰)还有一位牛津大学教授(劳拉·哈德克饰)。
      每个人一生中都会遇到这样一个时刻,它召唤着我们去改变世界。在《变形金刚5:最后的骑士》中,一直被追捕的人将成为英雄,英雄会变成反派。我们和他们的世界,只能存活一个。
    1. Video
    2. ID                                       : 1
    3. Format                                   : AVC
    4. Format/Info                              : Advanced Video Codec
    5. Format profile                           : High@L4.1
    6. Format settings, CABAC                   : Yes
    7. Format settings, ReFrames                : 3 frames
    8. Codec ID                                 : V_MPEG4/ISO/AVC
    9. Duration                                 : 2 h 34 min
    10. Nominal bit rate                         : 15.5 Mb/s
    11. Width                                    : 1 920 pixels
    12. Height                                   : 1 080 pixels
    13. Display aspect ratio                     : 16:9
    14. Frame rate mode                          : Constant
    15. Frame rate                               : 23.976 (24000/1001) FPS
    16. Color space                              : YUV
    17. Chroma subsampling                       : 4:2:0
    18. Bit depth                                : 8 bits
    19. Scan type                                : Progressive
    20. Bits/(Pixel*Frame)                       : 0.312
    21. Title                                    : Transformers.The.Last.Knight.2017.1080p.3D.BluRay.Half-SBS.x264.DTS-HD.MA.7.1-FGT
    22. Writing library                          : x264 core 148
    23. Encoding settings                        : cabac=1 / ref=3 / deblock=1:-1:-1 / analyse=0x3:0 / me=hex / subme=5 / psy=1 / psy_rd=1.00:0.00 / mixed_ref=0 / me_range=16 / chroma_me=1 / trellis=1 / 8x8dct=1 / cqm=0 / deadzone=21,11 / fast_pskip=0 / chroma_qp_offset=0 / threads=8 / lookahead_threads=2 / sliced_threads=0 / nr=0 / decimate=1 / interlaced=0 / bluray_compat=0 / constrained_intra=0 / bframes=2 / b_pyramid=0 / b_adapt=1 / b_bias=0 / direct=1 / weightb=0 / open_gop=0 / weightp=0 / keyint=24 / keyint_min=2 / scenecut=40 / intra_refresh=0 / rc=abr / mbtree=0 / bitrate=15500 / ratetol=1.0 / qcomp=0.60 / qpmin=0 / qpmax=69 / qpstep=4 / ip_ratio=1.40 / pb_ratio=1.30 / aq=1:1.00
    24. Default                                  : Yes
    25. Forced                                   : No
    26. Color range                              : Limited
    27. Color primaries                          : BT.709
    28. Transfer characteristics                 : BT.709
    29. Matrix coefficients                      : BT.709

    30. Audio #1
    31. ID                                       : 2
    32. Format                                   : DTS
    33. Format/Info                              : Digital Theater Systems
    34. Format profile                           : MA / Core
    35. Mode                                     : 16
    36. Format settings, Endianness              : Big
    37. Codec ID                                 : A_DTS
    38. Duration                                 : 2 h 34 min
    39. Bit rate mode                            : Variable / Constant
    40. Bit rate                                 : Unknown / 1 509 kb/s
    41. Channel(s)                               : 8 channels / 6 channels
    42. Channel positions                        : Front: L C R, Side: L R, Back: L R, LFE / Front: L C R, Side: L R, LFE
    43. Sampling rate                            : 48.0 kHz
    44. Frame rate                               : 93.750 FPS (512 spf)
    45. Bit depth                                : 24 bits
    46. Compression mode                         : Lossless / Lossy
    47. Title                                    : Transformers.The.Last.Knight.2017.1080p.3D.BluRay.Half-SBS.x264.DTS-HD.MA.7.1-FGT
    48. Language                                 : English
    49. Default                                  : Yes
    50. Forced                                   : No

    51. Audio #2
    52. ID                                       : 3
    53. Format                                   : AC-3
    54. Format/Info                              : Audio Coding 3
    55. Format settings, Endianness              : Big
    56. Codec ID                                 : A_AC3
    57. Duration                                 : 2 h 34 min
    58. Bit rate mode                            : Constant
    59. Bit rate                                 : 640 kb/s
    60. Channel(s)                               : 6 channels
    61. Channel positions                        : Front: L C R, Side: L R, LFE
    62. Sampling rate                            : 48.0 kHz
    63. Frame rate                               : 31.250 FPS (1536 spf)
    64. Bit depth                                : 16 bits
    65. Compression mode                         : Lossy
    66. Stream size                              : 708 MiB (3%)
    67. Title                                    : Transformers.The.Last.Knight.2017.1080p.3D.BluRay.Half-SBS.x264.DTS-HD.MA.7.1-FGT
    68. Language                                 : English
    69. Service kind                             : Complete Main
    70. Default                                  : No
    71. Forced                                   : No

    72. Audio #3
    73. ID                                       : 4
    74. Format                                   : AC-3
    75. Format/Info                              : Audio Coding 3
    76. Format settings, Endianness              : Big
    77. Codec ID                                 : A_AC3
    78. Duration                                 : 2 h 34 min
    79. Bit rate mode                            : Constant
    80. Bit rate                                 : 640 kb/s
    81. Channel(s)                               : 6 channels
    82. Channel positions                        : Front: L C R, Side: L R, LFE
    83. Sampling rate                            : 48.0 kHz
    84. Frame rate                               : 31.250 FPS (1536 spf)
    85. Bit depth                                : 16 bits
    86. Compression mode                         : Lossy
    87. Stream size                              : 708 MiB (3%)
    88. Title                                    : Transformers.The.Last.Knight.2017.1080p.3D.BluRay.Half-SBS.x264.DTS-HD.MA.7.1-FGT
    89. Language                                 : English
    90. Service kind                             : Complete Main
    91. Default                                  : No
    92. Forced                                   : No

    93. Audio #4
    94. ID                                       : 5
    95. Format                                   : AC-3
    96. Format/Info                              : Audio Coding 3
    97. Mode                                     : Dolby Digital
    98. Format settings, Endianness              : Big
    99. Codec ID                                 : A_AC3
    100. Duration                                 : 2 h 34 min
    101. Bit rate mode                            : Constant
    102. Bit rate                                 : 224 kb/s
    103. Channel(s)                               : 2 channels
    104. Channel positions                        : Front: L R
    105. Sampling rate                            : 48.0 kHz
    106. Frame rate                               : 31.250 FPS (1536 spf)
    107. Bit depth                                : 16 bits
    108. Compression mode                         : Lossy
    109. Stream size                              : 248 MiB (1%)
    110. Title                                    : Transformers.The.Last.Knight.2017.1080p.3D.BluRay.Half-SBS.x264.DTS-HD.MA.7.1-FGT
    111. Language                                 : English
    112. Service kind                             : Complete Main
    113. Default                                  : No
    114. Forced                                   : No

    115. Audio #5
    116. ID                                       : 6
    117. Format                                   : AC-3
    118. Format/Info                              : Audio Coding 3
    119. Format settings, Endianness              : Big
    120. Codec ID                                 : A_AC3
    121. Duration                                 : 2 h 34 min
    122. Bit rate mode                            : Constant
    123. Bit rate                                 : 640 kb/s
    124. Channel(s)                               : 6 channels
    125. Channel positions                        : Front: L C R, Side: L R, LFE
    126. Sampling rate                            : 48.0 kHz
    127. Frame rate                               : 31.250 FPS (1536 spf)
    128. Bit depth                                : 16 bits
    129. Compression mode                         : Lossy
    130. Stream size                              : 708 MiB (3%)
    131. Title                                    : Transformers.The.Last.Knight.2017.1080p.3D.BluRay.Half-SBS.x264.DTS-HD.MA.7.1-FGT
    132. Language                                 : French
    133. Service kind                             : Complete Main
    134. Default                                  : No
    135. Forced                                   : No

    136. Audio #6
    137. ID                                       : 7
    138. Format                                   : AC-3
    139. Format/Info                              : Audio Coding 3
    140. Format settings, Endianness              : Big
    141. Codec ID                                 : A_AC3
    142. Duration                                 : 2 h 34 min
    143. Bit rate mode                            : Constant
    144. Bit rate                                 : 640 kb/s
    145. Channel(s)                               : 6 channels
    146. Channel positions                        : Front: L C R, Side: L R, LFE
    147. Sampling rate                            : 48.0 kHz
    148. Frame rate                               : 31.250 FPS (1536 spf)
    149. Bit depth                                : 16 bits
    150. Compression mode                         : Lossy
    151. Stream size                              : 708 MiB (3%)
    152. Title                                    : Transformers.The.Last.Knight.2017.1080p.3D.BluRay.Half-SBS.x264.DTS-HD.MA.7.1-FGT
    153. Language                                 : Spanish
    154. Service kind                             : Complete Main
    155. Default                                  : No
    156. Forced                                   : No

    157. Audio #7
    158. ID                                       : 8
    159. Format                                   : AC-3
    160. Format/Info                              : Audio Coding 3
    161. Format settings, Endianness              : Big
    162. Codec ID                                 : A_AC3
    163. Duration                                 : 2 h 34 min
    164. Bit rate mode                            : Constant
    165. Bit rate                                 : 640 kb/s
    166. Channel(s)                               : 6 channels
    167. Channel positions                        : Front: L C R, Side: L R, LFE
    168. Sampling rate                            : 48.0 kHz
    169. Frame rate                               : 31.250 FPS (1536 spf)
    170. Bit depth                                : 16 bits
    171. Compression mode                         : Lossy
    172. Stream size                              : 708 MiB (3%)
    173. Title                                    : Transformers.The.Last.Knight.2017.1080p.3D.BluRay.Half-SBS.x264.DTS-HD.MA.7.1-FGT
    174. Language                                 : Portuguese
    175. Service kind                             : Complete Main
    176. Default                                  : No
    177. Forced                                   : No

    178. Audio #8
    179. ID                                       : 9
    180. Format                                   : AC-3
    181. Format/Info                              : Audio Coding 3
    182. Format settings, Endianness              : Big
    183. Codec ID                                 : A_AC3
    184. Duration                                 : 2 h 34 min
    185. Bit rate mode                            : Constant
    186. Bit rate                                 : 640 kb/s
    187. Channel(s)                               : 6 channels
    188. Channel positions                        : Front: L C R, Side: L R, LFE
    189. Sampling rate                            : 48.0 kHz
    190. Frame rate                               : 31.250 FPS (1536 spf)
    191. Bit depth                                : 16 bits
    192. Compression mode                         : Lossy
    193. Stream size                              : 708 MiB (3%)
    194. Title                                    : Transformers.The.Last.Knight.2017.1080p.3D.BluRay.Half-SBS.x264.DTS-HD.MA.7.1-FGT
    195. Language                                 : English
    196. Service kind                             : Complete Main
    197. Default                                  : No
    198. Forced                                   : No

    199. Text #1
    200. ID                                       : 10
    201. Format                                   : PGS
    202. Muxing mode                              : zlib
    203. Codec ID                                 : S_HDMV/PGS
    204. Codec ID/Info                            : Picture based subtitle format used on BDs/HD-DVDs
    205. Title                                    : English-PGS
    206. Language                                 : English
    207. Default                                  : Yes
    208. Forced                                   : No

    209. Text #2
    210. ID                                       : 11
    211. Format                                   : PGS
    212. Muxing mode                              : zlib
    213. Codec ID                                 : S_HDMV/PGS
    214. Codec ID/Info                            : Picture based subtitle format used on BDs/HD-DVDs
    215. Title                                    : English-SDH-PGS
    216. Language                                 : English
    217. Default                                  : No
    218. Forced                                   : No

    219. Text #3
    220. ID                                       : 12
    221. Format                                   : PGS
    222. Muxing mode                              : zlib
    223. Codec ID                                 : S_HDMV/PGS
    224. Codec ID/Info                            : Picture based subtitle format used on BDs/HD-DVDs
    225. Title                                    : French-PGS
    226. Language                                 : French
    227. Default                                  : No
    228. Forced                                   : No

    229. Text #4
    230. ID                                       : 13
    231. Format                                   : PGS
    232. Muxing mode                              : zlib
    233. Codec ID                                 : S_HDMV/PGS
    234. Codec ID/Info                            : Picture based subtitle format used on BDs/HD-DVDs
    235. Title                                    : Spanish-PGS
    236. Language                                 : Spanish
    237. Default                                  : No
    238. Forced                                   : No

    239. Text #5
    240. ID                                       : 14
    241. Format                                   : PGS
    242. Muxing mode                              : zlib
    243. Codec ID                                 : S_HDMV/PGS
    244. Codec ID/Info                            : Picture based subtitle format used on BDs/HD-DVDs
    245. Title                                    : Portuguese-PGS
    246. Language                                 : Portuguese
    247. Default                                  : No
    248. Forced                                   : No

    249. Menu
    250. 00:00:00.000                             : en01)00:00:00:000
    251. 00:06:35.269                             : en02)00:06:35:269
    252. 00:14:02.633                             : en03)00:14:02:633
    253. 00:21:44.928                             : en04)00:21:44:928
    254. 00:27:52.420                             : en05)00:27:52:420
    255. 00:33:53.072                             : en06)00:33:53:072
    256. 00:40:08.072                             : en07)00:40:08:072
    257. 00:46:58.106                             : en000:46:58:106
    258. 00:53:24.951                             : en09)00:53:24:951
    259. 01:02:02.093                             : en10)01:02:02:093
    260. 01:08:46.247                             : en11)01:08:46:247
    261. 01:14:36.388                             : en12)01:14:36:388
    262. 01:20:09.346                             : en13)01:20:09:346
    263. 01:29:12.555                             : en14)01:29:12:555
    264. 01:37:58.664                             : en15)01:37:58:664
    265. 01:44:56.748                             : en16)01:44:56:748
    266. 01:51:14.668                             : en17)01:51:14:668
    267. 01:57:58.613                             : en101:57:58:613
    268. 02:06:08.894                             : en19)02:06:08:894
    269. 02:10:53.262                             : en20)02:10:53:262
    270. 02:16:00.318                             : en21)02:16:00:318
    271. 02:21:41.784                             : en22)02:21:41:784
    272. 02:25:16.457                             : en23)02:25:16:457
    273.      
    复制代码
    -------------------------
    ◎精彩剧照






    [以上高清电影剧照来自互联网,不代表此片高清剧照]
    郑重声明:本站提供的所有高清电影作品均是在网上搜集,任何涉及商业盈利目的均不得使用,否则产生的一切后果将由您自己承担!本站将不对本站的任何内容负任何法律责任!

    该下载内容仅做宽带测试使用,请在下载后24小时内删除。请购买正版!

    -------------------------
    ◎种子下载地址

    游客,如果您要查看本帖隐藏内容请回复
    回复

    使用道具 举报

  • TA的每日心情
    开心
    2017-10-18 14:36
  • 签到天数: 65 天

    连续签到: 1 天

    [LV.6]常住居民II

    发表于 2017-9-25 08:31:09 | 显示全部楼层
    谢谢楼主辛苦了
    回复 支持 反对

    使用道具 举报

  • TA的每日心情

    2017-10-24 00:00
  • 签到天数: 413 天

    连续签到: 2 天

    [LV.9]以坛为家II

    发表于 2017-9-25 09:02:52 | 显示全部楼层
    谢谢楼主的分享
    [发帖际遇]: tonyoung 发帖时在路边捡到 3 蓝光币,偷偷放进了口袋. 幸运榜 / 衰神榜
    回复 支持 反对

    使用道具 举报

  • TA的每日心情
    无聊
    2017-10-4 10:10
  • 签到天数: 17 天

    连续签到: 1 天

    [LV.4]偶尔看看III

    发表于 2017-9-25 09:06:08 | 显示全部楼层
    3d版的再看一次
    回复 支持 反对

    使用道具 举报

  • TA的每日心情
    开心
    2017-9-29 09:44
  • 签到天数: 21 天

    连续签到: 5 天

    [LV.4]偶尔看看III

    发表于 2017-9-25 09:37:44 | 显示全部楼层
    谢谢楼主分享
    回复 支持 反对

    使用道具 举报

  • TA的每日心情
    开心
    2017-9-25 09:47
  • 签到天数: 7 天

    连续签到: 1 天

    [LV.3]偶尔看看II

    发表于 2017-9-25 09:48:43 | 显示全部楼层
    不知道下载速度怎么样?
    [发帖际遇]: 一个钱袋子砸在了 jwl012345 头上,jwl012345 赚了 2 蓝光币. 幸运榜 / 衰神榜
    回复 支持 反对

    使用道具 举报

  • TA的每日心情
    开心
    2017-10-12 11:36
  • 签到天数: 29 天

    连续签到: 1 天

    [LV.4]偶尔看看III

    发表于 2017-9-25 10:08:53 | 显示全部楼层
    ddddddddddddddd
    回复 支持 反对

    使用道具 举报

  • TA的每日心情
    开心
    2017-11-17 22:56
  • 签到天数: 60 天

    连续签到: 1 天

    [LV.6]常住居民II

    发表于 2017-9-25 10:14:14 | 显示全部楼层
    支持是必须的~~
    [发帖际遇]: pptiger10 乐于助人,奖励 3 蓝光币. 幸运榜 / 衰神榜
    回复 支持 反对

    使用道具 举报

    您需要登录后才可以回帖 登录 | 立即加入

    本版积分规则

    您尚未登录,请登陆后浏览更精彩内容!
     立即加入
    找回密码

    QQ| 广告勿扰。QQ:15608182(不一定在线,留言看到会处理,勿催)|如有侵权内容请联系:www1080net#qq.com 会及时删除|Archiver|手机版| 蓝光论坛  

    返回顶部
    x

    关注微信 不迷路

    Copyright © 2001-2013 Comsenz Inc.  Template by 蓝光电影论坛 All Rights Reserved.

    Powered by Discuz! X3.2( ICP备11019663号-4 )

    快速回复 返回顶部 返回列表