找回密码

蓝光电影论坛

查看: 2420|回复: 149

[电影] [2011][美国][动画][左右3D半宽][丁丁历险记/丁丁历险记:独角兽号的秘密][1080P-17.19G][MKV]DTS5.1

  [复制链接]
  • TA的每日心情
    开心
    2017-6-18 00:02
  • 签到天数: 64 天

    连续签到: 5 天

    [LV.6]常住居民II

    发表于 2017-6-21 08:30:00 | 显示全部楼层 |阅读模式

    马上注册,获取最新影视资讯,享用更多功能,让你轻松玩转高清论坛。

    您需要 登录 才可以下载或查看,没有帐号?立即加入

    x
    [2011][美国][动画][左右3D半宽][丁丁历险记/丁丁历险记:独角兽号的秘密][1080P-17.19G][MKV]DTS5.1

    [2011][美国][动画][左右3D半宽][丁丁历险记丁丁历险记:独角兽号的秘密][1080P-17.19G][MKV]DTS5.1 ... ...

    [2011][美国][动画][左右3D半宽][丁丁历险记丁丁历险记:独角兽号的秘密][1080P-17.19G][MKV]DTS5.1 ... ...

    ◎影片基本信息
    ◎大  小 17.19G  左右3D半宽
    ◎清 晰 度 1080p
    ◎格    式 MKV
    ◎片  长 107分钟
    ◎豆瓣评分 7.6
    ◎年  代 2011
    ◎译  名 丁丁历险记/丁丁历险记:独角兽号的秘密
    ◎片  名 The Adventures of Tintin: The Secret of the Unicorn
    ◎产  地 美国/新西兰
    ◎类  别 动作/动画/悬疑/冒险
    ◎语  言 英语
    ◎上映日期 2011-11-15(中国大陆)/2011-12-21(美国)
    ◎IMDb评分  tt0983193
    ◎导  演 史蒂文·斯皮尔伯格 Steven Spielberg
    ◎主  演 杰米·贝尔 Jamie Bell
          安迪·塞基斯 Andy Serkis
          丹尼尔·克雷格 Daniel Craig
          西蒙·佩吉 Simon Pegg
          尼克·弗罗斯特 Nick Frost
          加利·艾尔维斯 Cary Elwes
          托比·琼斯 Toby Jones
    ◎影    片: The.Adventures.of.Tintin.2011.1080p.3D.BluRay.Half-SBS.x264.DTS-HD.MA.5.1-FGT

    ◎剧情简介
           丁丁(杰米·贝尔 Jamie Bell 配音)和白雪的故事可以说是影响了不止一代人。在史蒂文·斯皮尔伯格和彼得·杰克逊的努力下,丁丁的故事终于被搬上了大

    银幕。这一次,丁丁因为一艘古老的船模,而开始了一次惊险的历险。这艘名为独角兽号的模型船,隐藏着一个海盗和财宝的故事。为了解开这个流传了几个世纪的秘密

    ,丁丁和白雪一起不断寻找线索,找寻真相。在航海家阿道克船长(安迪·瑟金斯 Andy Serkis 饰)、笨手笨脚的侦探搭档杜庞(西蒙·佩吉 Simon Pegg 配音)与杜

    邦(尼克·弗罗斯特 Nick Frost 配音)以及白雪的帮助下,丁丁游历了半个地球,与恶棍萨卡林(丹尼尔·克雷格 Daniel Craig 配音)斗智斗勇。最终,丁丁终于找

    到了独角兽号隐藏的秘密,以及那一则古老的诅咒……
      在第84届奥斯卡金像奖中,丁丁历险记获得了最佳配乐的提名。

    ◎获奖情况

      第84届奥斯卡金像奖  (2012)
      最佳原创配乐(提名) 约翰·威廉姆斯

      第69届金球奖  (2012)
      电影类 最佳动画长片

      第39届动画安妮奖  (2012)
      最佳动画长片(提名)
      最佳编剧(提名) 史蒂文·莫法特 / 埃德加·赖特 / 乔·考尼什
      最佳配乐 约翰·威廉姆斯
      最佳剪辑(提名) 迈克尔·卡恩
      最佳动画效果

      第17届美国评论家选择电影奖  (2012)
      最佳动画片(提名)

      第10届华盛顿影评人协会奖  (2011)
      最佳动画片(提名)

      第24届芝加哥影评人协会奖  (2011)
      最佳动画片(提名)

      第11届凤凰城影评人协会奖  (2011)
      最佳动画片(提名)

      第20届东南影评人协会奖  (2011)
      最佳动画片(提名)

      第2届豆瓣电影鑫像奖  (2012)
      鑫豆单元 最佳导演(外语)(提名) 史蒂文·斯皮尔伯格
    -------------------------
    1. Video
    2. ID                                       : 1
    3. Format                                   : AVC
    4. Format/Info                              : Advanced Video Codec
    5. Format profile                           : High@L4.1
    6. Format settings, CABAC                   : Yes
    7. Format settings, ReFrames                : 2 frames
    8. Codec ID                                 : V_MPEG4/ISO/AVC
    9. Duration                                 : 1 h 46 min
    10. Nominal bit rate                         : 15.5 Mb/s
    11. Width                                    : 1 920 pixels
    12. Height                                   : 1 080 pixels
    13. Display aspect ratio                     : 16:9
    14. Frame rate mode                          : Constant
    15. Frame rate                               : 23.976 (24000/1001) FPS
    16. Color space                              : YUV
    17. Chroma subsampling                       : 4:2:0
    18. Bit depth                                : 8 bits
    19. Scan type                                : Progressive
    20. Bits/(Pixel*Frame)                       : 0.312
    21. Title                                    : The.Adventures.of.Tintin.2011.1080p.3D.BluRay.Half-SBS.x264.DTS-HD.MA.5.1-FGT
    22. Writing library                          : x264 core 142
    23. Encoding settings                        : cabac=1 / ref=1 / deblock=1:-1:-1 / analyse=0x3:0 / me=hex / subme=5 / psy=0 / mixed_ref=0 / me_range=16

    24. / chroma_me=1 / trellis=0 / 8x8dct=1 / cqm=0 / deadzone=21,11 / fast_pskip=0 / chroma_qp_offset=0 / threads=8 / lookahead_threads=2 /

    25. sliced_threads=0 / nr=0 / decimate=1 / interlaced=0 / bluray_compat=0 / constrained_intra=0 / bframes=2 / b_pyramid=0 / b_adapt=1 / b_bias=0 /

    26. direct=1 / weightb=0 / open_gop=0 / weightp=0 / keyint=24 / keyint_min=13 / scenecut=40 / intra_refresh=0 / rc=2pass / mbtree=0 / bitrate=15500 /

    27. ratetol=1.0 / qcomp=0.60 / qpmin=0 / qpmax=69 / qpstep=4 / cplxblur=20.0 / qblur=0.5 / ip_ratio=1.40 / pb_ratio=1.30 / aq=1:1.00
    28. Default                                  : Yes
    29. Forced                                   : No
    30. Color range                              : Limited
    31. Color primaries                          : BT.709
    32. Transfer characteristics                 : BT.709
    33. Matrix coefficients                      : BT.709

    34. Audio #1
    35. ID                                       : 2
    36. Format                                   : DTS
    37. Format/Info                              : Digital Theater Systems
    38. Format profile                           : MA / Core
    39. Mode                                     : 16
    40. Format settings, Endianness              : Big
    41. Codec ID                                 : A_DTS
    42. Duration                                 : 1 h 46 min
    43. Bit rate mode                            : Variable / Constant
    44. Bit rate                                 : Unknown / 1 509 kb/s
    45. Channel(s)                               : 6 channels
    46. Channel positions                        : Front: L C R, Side: L R, LFE
    47. Sampling rate                            : 48.0 kHz
    48. Frame rate                               : 93.750 FPS (512 spf)
    49. Bit depth                                : 16 bits
    50. Compression mode                         : Lossless / Lossy
    51. Title                                    : The.Adventures.of.Tintin.2011.1080p.3D.BluRay.Half-SBS.x264.DTS-HD.MA.5.1-FGT
    52. Language                                 : English
    53. Default                                  : Yes
    54. Forced                                   : No

    55. Audio #2
    56. ID                                       : 3
    57. Format                                   : AC-3
    58. Format/Info                              : Audio Coding 3
    59. Format settings, Endianness              : Big
    60. Codec ID                                 : A_AC3
    61. Duration                                 : 1 h 46 min
    62. Bit rate mode                            : Constant
    63. Bit rate                                 : 640 kb/s
    64. Channel(s)                               : 6 channels
    65. Channel positions                        : Front: L C R, Side: L R, LFE
    66. Sampling rate                            : 48.0 kHz
    67. Frame rate                               : 31.250 FPS (1536 spf)
    68. Bit depth                                : 16 bits
    69. Compression mode                         : Lossy
    70. Stream size                              : 489 MiB (3%)
    71. Title                                    : The.Adventures.of.Tintin.2011.1080p.3D.BluRay.Half-SBS.x264.DTS-HD.MA.5.1-FGT
    72. Language                                 : Arabic
    73. Service kind                             : Complete Main
    74. Default                                  : No
    75. Forced                                   : No

    76. Audio #3
    77. ID                                       : 4
    78. Format                                   : AC-3
    79. Format/Info                              : Audio Coding 3
    80. Format settings, Endianness              : Big
    81. Codec ID                                 : A_AC3
    82. Duration                                 : 1 h 46 min
    83. Bit rate mode                            : Constant
    84. Bit rate                                 : 640 kb/s
    85. Channel(s)                               : 6 channels
    86. Channel positions                        : Front: L C R, Side: L R, LFE
    87. Sampling rate                            : 48.0 kHz
    88. Frame rate                               : 31.250 FPS (1536 spf)
    89. Bit depth                                : 16 bits
    90. Compression mode                         : Lossy
    91. Stream size                              : 489 MiB (3%)
    92. Title                                    : The.Adventures.of.Tintin.2011.1080p.3D.BluRay.Half-SBS.x264.DTS-HD.MA.5.1-FGT
    93. Language                                 : Estonian
    94. Service kind                             : Complete Main
    95. Default                                  : No
    96. Forced                                   : No

    97. Audio #4
    98. ID                                       : 5
    99. Format                                   : AC-3
    100. Format/Info                              : Audio Coding 3
    101. Format settings, Endianness              : Big
    102. Codec ID                                 : A_AC3
    103. Duration                                 : 1 h 46 min
    104. Bit rate mode                            : Constant
    105. Bit rate                                 : 640 kb/s
    106. Channel(s)                               : 6 channels
    107. Channel positions                        : Front: L C R, Side: L R, LFE
    108. Sampling rate                            : 48.0 kHz
    109. Frame rate                               : 31.250 FPS (1536 spf)
    110. Bit depth                                : 16 bits
    111. Compression mode                         : Lossy
    112. Stream size                              : 489 MiB (3%)
    113. Title                                    : The.Adventures.of.Tintin.2011.1080p.3D.BluRay.Half-SBS.x264.DTS-HD.MA.5.1-FGT
    114. Language                                 : Hebrew
    115. Service kind                             : Complete Main
    116. Default                                  : No
    117. Forced                                   : No

    118. Audio #5
    119. ID                                       : 6
    120. Format                                   : AC-3
    121. Format/Info                              : Audio Coding 3
    122. Format settings, Endianness              : Big
    123. Codec ID                                 : A_AC3
    124. Duration                                 : 1 h 46 min
    125. Bit rate mode                            : Constant
    126. Bit rate                                 : 640 kb/s
    127. Channel(s)                               : 6 channels
    128. Channel positions                        : Front: L C R, Side: L R, LFE
    129. Sampling rate                            : 48.0 kHz
    130. Frame rate                               : 31.250 FPS (1536 spf)
    131. Bit depth                                : 16 bits
    132. Compression mode                         : Lossy
    133. Stream size                              : 489 MiB (3%)
    134. Title                                    : The.Adventures.of.Tintin.2011.1080p.3D.BluRay.Half-SBS.x264.DTS-HD.MA.5.1-FGT
    135. Language                                 : Latvian
    136. Service kind                             : Complete Main
    137. Default                                  : No
    138. Forced                                   : No

    139. Audio #6
    140. ID                                       : 7
    141. Format                                   : AC-3
    142. Format/Info                              : Audio Coding 3
    143. Format settings, Endianness              : Big
    144. Codec ID                                 : A_AC3
    145. Duration                                 : 1 h 46 min
    146. Bit rate mode                            : Constant
    147. Bit rate                                 : 640 kb/s
    148. Channel(s)                               : 6 channels
    149. Channel positions                        : Front: L C R, Side: L R, LFE
    150. Sampling rate                            : 48.0 kHz
    151. Frame rate                               : 31.250 FPS (1536 spf)
    152. Bit depth                                : 16 bits
    153. Compression mode                         : Lossy
    154. Stream size                              : 489 MiB (3%)
    155. Title                                    : The.Adventures.of.Tintin.2011.1080p.3D.BluRay.Half-SBS.x264.DTS-HD.MA.5.1-FGT
    156. Language                                 : Lithuanian
    157. Service kind                             : Complete Main
    158. Default                                  : No
    159. Forced                                   : No

    160. Audio #7
    161. ID                                       : 8
    162. Format                                   : AC-3
    163. Format/Info                              : Audio Coding 3
    164. Format settings, Endianness              : Big
    165. Codec ID                                 : A_AC3
    166. Duration                                 : 1 h 46 min
    167. Bit rate mode                            : Constant
    168. Bit rate                                 : 640 kb/s
    169. Channel(s)                               : 6 channels
    170. Channel positions                        : Front: L C R, Side: L R, LFE
    171. Sampling rate                            : 48.0 kHz
    172. Frame rate                               : 31.250 FPS (1536 spf)
    173. Bit depth                                : 16 bits
    174. Compression mode                         : Lossy
    175. Stream size                              : 489 MiB (3%)
    176. Title                                    : The.Adventures.of.Tintin.2011.1080p.3D.BluRay.Half-SBS.x264.DTS-HD.MA.5.1-FGT
    177. Language                                 : Russian
    178. Service kind                             : Complete Main
    179. Default                                  : No
    180. Forced                                   : No

    181. Audio #8
    182. ID                                       : 9
    183. Format                                   : AC-3
    184. Format/Info                              : Audio Coding 3
    185. Format settings, Endianness              : Big
    186. Codec ID                                 : A_AC3
    187. Duration                                 : 1 h 46 min
    188. Bit rate mode                            : Constant
    189. Bit rate                                 : 640 kb/s
    190. Channel(s)                               : 6 channels
    191. Channel positions                        : Front: L C R, Side: L R, LFE
    192. Sampling rate                            : 48.0 kHz
    193. Frame rate                               : 31.250 FPS (1536 spf)
    194. Bit depth                                : 16 bits
    195. Compression mode                         : Lossy
    196. Stream size                              : 489 MiB (3%)
    197. Title                                    : The.Adventures.of.Tintin.2011.1080p.3D.BluRay.Half-SBS.x264.DTS-HD.MA.5.1-FGT
    198. Language                                 : Turkish
    199. Service kind                             : Complete Main
    200. Default                                  : No
    201. Forced                                   : No

    202. Audio #9
    203. ID                                       : 10
    204. Format                                   : AC-3
    205. Format/Info                              : Audio Coding 3
    206. Format settings, Endianness              : Big
    207. Codec ID                                 : A_AC3
    208. Duration                                 : 1 h 46 min
    209. Bit rate mode                            : Constant
    210. Bit rate                                 : 640 kb/s
    211. Channel(s)                               : 6 channels
    212. Channel positions                        : Front: L C R, Side: L R, LFE
    213. Sampling rate                            : 48.0 kHz
    214. Frame rate                               : 31.250 FPS (1536 spf)
    215. Bit depth                                : 16 bits
    216. Compression mode                         : Lossy
    217. Stream size                              : 489 MiB (3%)
    218. Title                                    : The.Adventures.of.Tintin.2011.1080p.3D.BluRay.Half-SBS.x264.DTS-HD.MA.5.1-FGT
    219. Language                                 : Ukrainian
    220. Service kind                             : Complete Main
    221. Default                                  : No
    222. Forced                                   : No

    223. Text #1
    224. ID                                       : 11
    225. Format                                   : PGS
    226. Muxing mode                              : zlib
    227. Codec ID                                 : S_HDMV/PGS
    228. Codec ID/Info                            : Picture based subtitle format used on BDs/HD-DVDs
    229. Title                                    : English-PGS
    230. Language                                 : English
    231. Default                                  : Yes
    232. Forced                                   : No

    233. Text #2
    234. ID                                       : 12
    235. Format                                   : PGS
    236. Muxing mode                              : zlib
    237. Codec ID                                 : S_HDMV/PGS
    238. Codec ID/Info                            : Picture based subtitle format used on BDs/HD-DVDs
    239. Title                                    : Arabic-PGS
    240. Language                                 : Arabic
    241. Default                                  : No
    242. Forced                                   : No

    243. Text #3
    244. ID                                       : 13
    245. Format                                   : PGS
    246. Muxing mode                              : zlib
    247. Codec ID                                 : S_HDMV/PGS
    248. Codec ID/Info                            : Picture based subtitle format used on BDs/HD-DVDs
    249. Title                                    : Estonian-PGS
    250. Language                                 : Estonian
    251. Default                                  : No
    252. Forced                                   : No

    253. Text #4
    254. ID                                       : 14
    255. Format                                   : PGS
    256. Muxing mode                              : zlib
    257. Codec ID                                 : S_HDMV/PGS
    258. Codec ID/Info                            : Picture based subtitle format used on BDs/HD-DVDs
    259. Title                                    : Hebrew-PGS
    260. Language                                 : Hebrew
    261. Default                                  : No
    262. Forced                                   : No

    263. Text #5
    264. ID                                       : 15
    265. Format                                   : PGS
    266. Muxing mode                              : zlib
    267. Codec ID                                 : S_HDMV/PGS
    268. Codec ID/Info                            : Picture based subtitle format used on BDs/HD-DVDs
    269. Title                                    : Latvian-PGS
    270. Language                                 : Latvian
    271. Default                                  : No
    272. Forced                                   : No

    273. Text #6
    274. ID                                       : 16
    275. Format                                   : PGS
    276. Muxing mode                              : zlib
    277. Codec ID                                 : S_HDMV/PGS
    278. Codec ID/Info                            : Picture based subtitle format used on BDs/HD-DVDs
    279. Title                                    : LIthuanian-PGS
    280. Language                                 : Lithuanian
    281. Default                                  : No
    282. Forced                                   : No

    283. Text #7
    284. ID                                       : 17
    285. Format                                   : PGS
    286. Muxing mode                              : zlib
    287. Codec ID                                 : S_HDMV/PGS
    288. Codec ID/Info                            : Picture based subtitle format used on BDs/HD-DVDs
    289. Title                                    : Russian-PGS
    290. Language                                 : Russian
    291. Default                                  : No
    292. Forced                                   : No

    293. Text #8
    294. ID                                       : 18
    295. Format                                   : PGS
    296. Muxing mode                              : zlib
    297. Codec ID                                 : S_HDMV/PGS
    298. Codec ID/Info                            : Picture based subtitle format used on BDs/HD-DVDs
    299. Title                                    : Turkish-PGS
    300. Language                                 : Turkish
    301. Default                                  : No
    302. Forced                                   : No

    303. Text #9
    304. ID                                       : 19
    305. Format                                   : PGS
    306. Muxing mode                              : zlib
    307. Codec ID                                 : S_HDMV/PGS
    308. Codec ID/Info                            : Picture based subtitle format used on BDs/HD-DVDs
    309. Title                                    : Ukrainian-PGS
    310. Language                                 : Ukrainian
    311. Default                                  : No
    312. Forced                                   : No

    313. Menu
    314. 00:00:00.000                             : en01)00:00:00:000
    315. 00:05:39.297                             : en02)00:05:39:297
    316. 00:12:12.314                             : en03)00:12:12:314
    317. 00:17:11.363                             : en04)00:17:11:363
    318. 00:25:36.868                             : en05)00:25:36:868
    319. 00:32:37.580                             : en06)00:32:37:580
    320. 00:37:55.314                             : en07)00:37:55:314
    321. 00:42:29.838                             : en000:42:29:838
    322. 00:50:52.507                             : en09)00:50:52:507
    323. 00:56:27.217                             : en10)00:56:27:217
    324. 01:02:19.610                             : en11)01:02:19:610
    325. 01:11:58.981                             : en12)01:11:58:981
    326. 01:20:03.965                             : en13)01:20:03:965
    327. 01:27:30.995                             : en14)01:27:30:995
    328. 01:34:12.813                             : en15)01:34:12:813
    329. 01:40:30.482                             : en16)01:40:30:482
    复制代码

    -------------------------
    ◎精彩剧照






    -------------------------
    [以上高清电影剧照来自互联网,不代表此片高清剧照]
    郑重声明:本站提供的所有高清电影作品均是在网上搜集,任何涉及商业盈利目的均不得使用,否则产生的一切后果将由您自己承担!本站将不对本站的任何内容负任何

    法律责任!该下载内容仅做宽带测试使用,请在下载后24小时内删除。请购买正
    版!
    -------------------------
    ◎种子下载地址
    游客,如果您要查看本帖隐藏内容请回复
    回复

    使用道具 举报

  • TA的每日心情
    开心
    昨天 09:21
  • 签到天数: 349 天

    连续签到: 4 天

    [LV.8]以坛为家I

    发表于 2017-6-21 08:47:07 | 显示全部楼层
    谢谢楼主分享~~~
    回复 支持 反对

    使用道具 举报

  • TA的每日心情
    开心
    2017-10-24 15:32
  • 签到天数: 220 天

    连续签到: 1 天

    [LV.7]常住居民III

    发表于 2017-6-21 09:04:57 | 显示全部楼层
    独角兽号的秘密][1080P-17.19G
    回复 支持 反对

    使用道具 举报

  • TA的每日心情
    开心
    昨天 09:32
  • 签到天数: 23 天

    连续签到: 1 天

    [LV.4]偶尔看看III

    发表于 2017-6-21 09:27:22 | 显示全部楼层
    好人一生安!
    [发帖际遇]: quanzi101 乐于助人,奖励 2 蓝光币. 幸运榜 / 衰神榜
    回复 支持 反对

    使用道具 举报

  • TA的每日心情
    开心
    4 天前
  • 签到天数: 99 天

    连续签到: 1 天

    [LV.6]常住居民II

    发表于 2017-6-21 09:29:04 | 显示全部楼层
    xia lai kankan , xiex l楼主
    [发帖际遇]: 喜欢攀岩 在路边偷看美女入神,被小偷偷去了 3 蓝光币. 幸运榜 / 衰神榜
    回复 支持 反对

    使用道具 举报

  • TA的每日心情
    开心
    4 天前
  • 签到天数: 171 天

    连续签到: 2 天

    [LV.7]常住居民III

    发表于 2017-6-21 09:40:34 | 显示全部楼层
    十几年前看过连环画...........
    [发帖际遇]: 银河一星 在路边偷看美女入神,被小偷偷去了 3 蓝光币. 幸运榜 / 衰神榜
    回复 支持 反对

    使用道具 举报

  • TA的每日心情
    奋斗
    2017-11-5 10:07
  • 签到天数: 5 天

    连续签到: 1 天

    [LV.2]偶尔看看I

    发表于 2017-6-21 10:11:16 | 显示全部楼层
    谢谢  下给孩子 看  谢谢
    [发帖际遇]: 一叶沉秋 乐于助人,奖励 3 蓝光币. 幸运榜 / 衰神榜
    回复 支持 反对

    使用道具 举报

    您需要登录后才可以回帖 登录 | 立即加入

    本版积分规则

    您尚未登录,请登陆后浏览更精彩内容!
     立即加入
    找回密码

    QQ| 广告勿扰。QQ:15608182(不一定在线,留言看到会处理,勿催)|如有侵权内容请联系:www1080net#qq.com 会及时删除|Archiver|手机版| 蓝光论坛  

    返回顶部
    x

    关注微信 不迷路

    Copyright © 2001-2013 Comsenz Inc.  Template by 蓝光电影论坛 All Rights Reserved.

    Powered by Discuz! X3.2( ICP备11019663号-4 )

    快速回复 返回顶部 返回列表