找回密码

蓝光电影论坛

查看: 3238|回复: 387

[2016][中国][爱情][二十八岁未成年/28岁未成年][WEB-DL][1080P-4.59G][MP4]AAC2.0

  [复制链接]
  • TA的每日心情
    无聊
    2015-10-16 08:48
  • 签到天数: 5 天

    连续签到: 1 天

    [LV.2]偶尔看看I

     成长值: 12445

    发表于 2017-1-6 09:53:25 | 显示全部楼层 |阅读模式

    马上注册,获取最新影视资讯,享用更多功能,让你轻松玩转高清论坛。

    您需要 登录 才可以下载或查看,没有帐号?立即加入

    x
    本帖最后由 Semnew 于 2017-1-6 10:52 编辑

    [2016][中国][爱情][二十八岁未成年/28岁未成年][WEB-DL][1080P-4.59G][MP4]AAC2.0
    a.jpg
    ◎影片基本信息
    大小: 4.59G
    清晰度: 1080P
    视频: MP4
    豆瓣评分: 5.8
    导演: 张末
    编剧: 张末 / 张弘毅 / 张影 / 翟嘟 / 田金
    主演: 倪妮 / 霍建华 / 马苏 / 王大陆 / 潘斌龙 / 隋凯 / 刘冰 / 余心恬 / 汪汐潮 / 来喜 / 曲哲明
    类型: 喜剧 / 爱情 / 奇幻
    制片国家/地区: 中国大陆
    语言: 汉语普通话
    上映日期: 2016-12-09(中国大陆)
    片长: 109分钟
    又名: 二十八岁未成年 / Suddenly Seventeen
    影片:

    ◎剧情简介
           二十八岁的凉夏(倪妮 饰)本以为一定能够和相恋了十年之久的男友茅亮(霍建华 饰)一起携手步入婚礼的殿堂,并且一直为了迎接两人盛大的婚礼而做着各种各样的准备,心中充满了对婚后生活的美好幻想。茅亮的公司正在进行着紧张的第二轮融资,事情进行的并不是非常顺利,凉夏对婚姻的渴望带给了茅亮巨大的压力。
      某日,两人一起参加了凉夏闺蜜白晓柠(马苏 饰)的婚礼,经受不住婚礼上浪漫热烈的氛围,凉夏向茅亮逼婚了,让凉夏没有想到的是,茅亮竟然提出了分手的要求,巨大的打击之下,凉夏崩溃了。一场意外的发生让凉夏的心智返回到了十七岁的年纪,此时外表成熟内心却极为幼稚的她遇见了名为严岩(王大陆 饰)的男子。
    -------------------------
    1. General
    2. Format                         : MPEG-4
    3. Format profile                 : Base Media
    4. Codec ID                       : isom (isom/iso2/avc1/mp41)
    5. File size                      : 4.59 GiB
    6. Duration                       : 1 h 46 min
    7. Overall bit rate               : 6 167 kb/s
    8. Writing application            : Lavf57.25.100

    9. Video
    10. ID                             : 1
    11. Format                         : AVC
    12. Format/Info                    : Advanced Video Codec
    13. Format profile                 : [email protected]
    14. Format settings, CABAC         : Yes
    15. Format settings, ReFrames      : 4 frames
    16. Codec ID                       : avc1
    17. Codec ID/Info                  : Advanced Video Coding
    18. Duration                       : 1 h 46 min
    19. Bit rate                       : 6 000 kb/s
    20. Width                          : 1 920 pixels
    21. Height                         : 1 080 pixels
    22. Display aspect ratio           : 16:9
    23. Frame rate mode                : Variable
    24. Frame rate                     : 24.000 FPS
    25. Minimum frame rate             : 15.789 FPS
    26. Maximum frame rate             : 24.000 FPS
    27. Color space                    : YUV
    28. Chroma subsampling             : 4:2:0
    29. Bit depth                      : 8 bits
    30. Scan type                      : Progressive
    31. Bits/(Pixel*Frame)             : 0.121
    32. Stream size                    : 4.45 GiB (97%)
    33. Writing library                : x264()-core 129 - H.264/MPEG-4
    34. Encoding settings              : cabac=1 / ref=4 / deblock=1:0:0 / analyse=0x3:0x133 / me=umh / subme=9 / psy=1 / psy_rd=0.00:0.00 / mixed_ref=1 / me_range=24 / chroma_me=1 / trellis=2 / 8x8dct=1 / cqm=0 / deadzone=21,11 / fast_pskip=0 / chroma_qp_offset=0 / threads=40 / lookahead_threads=6 / sliced_threads=0 / nr=0 / decimate=1 / interlaced=0 / bluray_compat=0 / constrained_intra=0 / bframes=4 / b_pyramid=2 / b_adapt=0 / b_bias=0 / direct=3 / weightb=1 / open_gop=0 / weightp=2 / keyint=240 / keyint_min=24 / scenecut=40 / intra_refresh=0 / rc_lookahead=60 / rc=abr / mbtree=1 / bitrate=6000 / ratetol=1.0 / qcomp=0.60 / qpmin=0 / qpmax=69 / qpstep=4 / vbv_maxrate=12000 / vbv_bufsize=6000 / nal_hrd=none / ip_ratio=1.40 / aq=1:1.00

    35. Audio
    36. ID                             : 2
    37. Format                         : AAC
    38. Format/Info                    : Advanced Audio Codec
    39. Format profile                 : LC
    40. Codec ID                       : 40
    41. Duration                       : 1 h 46 min
    42. Bit rate mode                  : Constant
    43. Bit rate                       : 192 kb/s
    44. Channel(s)                     : 2 channels
    45. Channel positions              : Front: L R
    46. Sampling rate                  : 44.1 kHz
    47. Frame rate                     : 43.066 FPS (1024 spf)
    48. Compression mode               : Lossy
    49. Stream size                    : 145 MiB (3%)
    50. Language                       : English
    51. Default                        : Yes
    52. Alternate group                : 1

    复制代码

    -------------------------
    ◎精彩剧照

    -------------------------
    [以上高清电影剧照来自互联网,不代表此片高清剧照]
    郑重声明:本站提供的所有高清电影作品均是在网上搜集,任何涉及商业盈利目的均不得使用,否则产生的一切后果将由您自己承担!本站将不对本站的任何内容负任何法律责任!该下载内容仅做宽带测试使用,请在下载后24小时内删除。请购买正
    版!
    -------------------------
    ◎种子下载地址
    游客,如果您要查看本帖隐藏内容请回复


    [发帖际遇]: 一个钱袋子砸在了 Semnew 头上,Semnew 赚了 2 蓝光币. 幸运榜 / 衰神榜
    回复

    使用道具 举报

  • TA的每日心情
    开心
    昨天 12:37
  • 签到天数: 1009 天

    连续签到: 2 天

    [LV.10]以坛为家III

    发表于 2017-1-6 10:15:25 | 显示全部楼层
    可以,来看下。谢了。
    回复 支持 反对

    使用道具 举报

  • TA的每日心情
    开心
    2017-2-7 12:09
  • 签到天数: 8 天

    连续签到: 1 天

    [LV.3]偶尔看看II

    发表于 2017-1-6 10:16:22 | 显示全部楼层
    3333333333333333333333333
    回复 支持 反对

    使用道具 举报

  • TA的每日心情
    开心
    2017-10-23 16:46
  • 签到天数: 128 天

    连续签到: 1 天

    [LV.7]常住居民III

    发表于 2017-1-6 10:18:57 | 显示全部楼层
    9999999999999999999999
    [发帖际遇]: 蓝海电子 乐于助人,奖励 1 蓝光币. 幸运榜 / 衰神榜
    回复 支持 反对

    使用道具 举报

  • TA的每日心情
    擦汗
    2017-12-2 11:46
  • 签到天数: 93 天

    连续签到: 1 天

    [LV.6]常住居民II

    发表于 2017-1-6 10:26:38 | 显示全部楼层
    感谢分享,楼主辛苦!
    回复 支持 反对

    使用道具 举报

  • TA的每日心情
    开心
    2017-2-15 10:50
  • 签到天数: 6 天

    连续签到: 1 天

    [LV.2]偶尔看看I

    发表于 2017-1-6 10:34:19 | 显示全部楼层
    我想知道我为何不能下载

    回复 支持 反对

    使用道具 举报

  • TA的每日心情
    奋斗
    2017-9-23 11:09
  • 签到天数: 71 天

    连续签到: 1 天

    [LV.6]常住居民II

    发表于 2017-1-6 10:37:00 | 显示全部楼层
    很好哼强大谢谢
    回复 支持 反对

    使用道具 举报

  • TA的每日心情
    开心
    昨天 14:49
  • 签到天数: 210 天

    连续签到: 1 天

    [LV.7]常住居民III

    发表于 2017-1-6 10:42:29 | 显示全部楼层
    感谢分析啊
    回复 支持 反对

    使用道具 举报

  • TA的每日心情
    开心
    2017-10-24 19:54
  • 签到天数: 492 天

    连续签到: 1 天

    [LV.9]以坛为家II

    发表于 2017-1-6 10:44:31 | 显示全部楼层
    感谢楼主分享~~~
    回复 支持 反对

    使用道具 举报

  • TA的每日心情
    开心
    前天 15:41
  • 签到天数: 508 天

    连续签到: 1 天

    [LV.9]以坛为家II

    发表于 2017-1-6 10:45:01 | 显示全部楼层
    郑重声明:本站提供的所有
    回复 支持 反对

    使用道具 举报

    您需要登录后才可以回帖 登录 | 立即加入

    本版积分规则

    您尚未登录,请登陆后浏览更精彩内容!
     立即加入
    找回密码

    QQ| 广告勿扰。QQ不一定在线,留言看到会处理,勿催|如有侵权内容请联系:[email protected] 会及时删除|Archiver|手机版| 蓝光论坛  

    返回顶部
    x

    加微信 不迷路

    Copyright © 2001-2013 Comsenz Inc.  Template by 蓝光电影论坛 All Rights Reserved.

    Powered by Discuz! X3.2( ICP备11019663号-4 )

    快速回复 返回顶部 返回列表