找回密码

蓝光电影论坛

查看: 10633|回复: 973

[国产剧] [2016][中国][剧情/悬疑][法医秦明/第十一根手指][1080P-20.77G][MP4]

  [复制链接]
  • TA的每日心情
    无聊
    2015-10-16 08:48
  • 签到天数: 5 天

    连续签到: 1 天

    [LV.2]偶尔看看I

     成长值: 11545

    发表于 2017-1-4 11:52:27 | 显示全部楼层 |阅读模式

    马上注册,获取最新影视资讯,享用更多功能,让你轻松玩转高清论坛。

    您需要 登录 才可以下载或查看,没有帐号?立即加入

    x
    [2016][中国][剧情/悬疑][法医秦明/第十一根手指][1080P-20.77G][MP4]
    a.jpg
    ◎影片基本信息
    大小: 20.77G
    清晰度: 1080P
    视频: MP4
    豆瓣评分: 7.1
    导演: 徐昂
    编剧: 郭琳媛 / 杨哲 / 徐翔云 / 辛菲 / 肖诗瑶 / 杨开泰 / 张吉 / 王维康 / 陈雅怡
    主演: 张若昀 / 焦俊艳 / 李现 / 程皓枫 / 屈菁菁
    类型: 剧情 / 悬疑
    制片国家/地区: 中国大陆
    语言: 汉语普通话
    首播: 2016-10-13(中国大陆)
    集数: 20
    单集片长: 33分钟
    又名: 第十一根手指 / Medical Examiner Dr. Qin
    影片:

    ◎剧情简介
           龙番市刑警队长林涛(李现 饰),与法医科科长秦明(张若昀 饰)是多年的老朋友。秦明的助理因不堪忍受秦明的古怪脾气打报告辞职。痕检科的李大宝(焦俊艳 饰)被借调加入工作小组。期初秦明对身为女生的大宝不信任,但倔强的大宝在破案中,体现出了相当不错的推理和观察能力,并且嗅觉极度灵敏,挑剔的秦明决定留下大宝。龙番警局的铁三角也初告形成。他们互相合作,接连破获了各种匪夷所思的案件。
    -------------------------
    1. Format                         : MPEG-4
    2. Format profile                 : Base Media
    3. Codec ID                       : isom (isom/iso2/avc1/mp41)
    4. File size                      : 1.06 GiB
    5. Duration                       : 37 min 34 s
    6. Overall bit rate mode          : Variable
    7. Overall bit rate               : 4 055 kb/s
    8. Writing application            : Lavf57.25.100

    9. Video
    10. ID                             : 1
    11. Format                         : AVC
    12. Format/Info                    : Advanced Video Codec
    13. Format profile                 : High@L4
    14. Format settings, CABAC         : Yes
    15. Format settings, ReFrames      : 3 frames
    16. Codec ID                       : avc1
    17. Codec ID/Info                  : Advanced Video Coding
    18. Duration                       : 37 min 34 s
    19. Bit rate                       : 3 956 kb/s
    20. Width                          : 1 920 pixels
    21. Height                         : 808 pixels
    22. Display aspect ratio           : 2.40:1
    23. Frame rate mode                : Variable
    24. Frame rate                     : 25.000 FPS
    25. Minimum frame rate             : 5.556 FPS
    26. Maximum frame rate             : 25.000 FPS
    27. Color space                    : YUV
    28. Chroma subsampling             : 4:2:0
    29. Bit depth                      : 8 bits
    30. Scan type                      : Progressive
    31. Bits/(Pixel*Frame)             : 0.102
    32. Stream size                    : 1.04 GiB (98%)
    33. Writing library                : TV.SOHU.COM

    34. Audio
    35. ID                             : 2
    36. Format                         : AAC
    37. Format/Info                    : Advanced Audio Codec
    38. Format profile                 : LC
    39. Codec ID                       : 40
    40. Duration                       : 37 min 34 s
    41. Bit rate mode                  : Variable
    42. Bit rate                       : 93.6 kb/s
    43. Maximum bit rate               : 98.5 kb/s
    44. Channel(s)                     : 2 channels
    45. Channel positions              : Front: L R
    46. Sampling rate                  : 44.1 kHz
    47. Frame rate                     : 43.066 FPS (1024 spf)
    48. Compression mode               : Lossy
    49. Stream size                    : 25.2 MiB (2%)
    50. Default                        : Yes
    51. Alternate group                : 1
    复制代码

    -------------------------
    ◎精彩剧照

    -------------------------
    [以上高清电影剧照来自互联网,不代表此片高清剧照]
    郑重声明:本站提供的所有高清电影作品均是在网上搜集,任何涉及商业盈利目的均不得使用,否则产生的一切后果将由您自己承担!本站将不对本站的任何内容负任何法律责任!该下载内容仅做宽带测试使用,请在下载后24小时内删除。请购买正
    版!
    -------------------------
    ◎种子下载地址
    游客,如果您要查看本帖隐藏内容请回复


    评分

    参与人数 1蓝光币 +1 收起 理由
    jasonjiang06 + 1

    查看全部评分

    回复

    使用道具 举报

  • TA的每日心情
    奋斗
    前天 13:10
  • 签到天数: 261 天

    连续签到: 3 天

    [LV.8]以坛为家I

    发表于 2017-1-4 12:56:00 | 显示全部楼层
    不过不错啊
    回复 支持 反对

    使用道具 举报

  • TA的每日心情
    奋斗
    2017-7-8 10:25
  • 签到天数: 43 天

    连续签到: 1 天

    [LV.5]常住居民I

    发表于 2017-1-4 13:28:32 | 显示全部楼层
    好东西要分享
    [发帖际遇]: 一个钱袋子砸在了 yxc00001 头上,yxc00001 赚了 1 蓝光币. 幸运榜 / 衰神榜
    回复 支持 反对

    使用道具 举报

  • TA的每日心情
    开心
    2017-7-17 01:31
  • 签到天数: 62 天

    连续签到: 1 天

    [LV.6]常住居民II

    发表于 2017-1-4 14:50:05 | 显示全部楼层
    听说很好看的。。
    [发帖际遇]: gudu123_1 乐于助人,奖励 1 蓝光币. 幸运榜 / 衰神榜
    回复 支持 反对

    使用道具 举报

  • TA的每日心情
    开心
    2017-10-2 14:16
  • 签到天数: 146 天

    连续签到: 1 天

    [LV.7]常住居民III

    发表于 2017-1-4 14:54:57 | 显示全部楼层
    回复点什么好呢
    回复 支持 反对

    使用道具 举报

    您需要登录后才可以回帖 登录 | 立即加入

    本版积分规则

    您尚未登录,请登陆后浏览更精彩内容!
     立即加入
    找回密码

    QQ| QQ:15608182(不一定在线,留言看到会处理,勿催)|如有侵权内容请联系:www1080net#qq.com 会及时删除|Archiver|手机版| 蓝光论坛  

    返回顶部
    x

    关注微信 不迷路

    Copyright © 2001-2013 Comsenz Inc.  Template by 蓝光电影论坛 All Rights Reserved.

    Powered by Discuz! X3.2( ICP备11019663号-4 )

    快速回复 返回顶部 返回列表