找回密码

蓝光电影论坛

查看: 1933|回复: 148

[喜剧] [2016][德国][喜剧][托尼·厄德曼/颠父人生][1080P-20.27G][MKV]DD5.1

  [复制链接]
  • TA的每日心情
    无聊
    2015-10-16 08:48
  • 签到天数: 5 天

    连续签到: 1 天

    [LV.2]偶尔看看I

     成长值: 6580

    发表于 2017-1-4 09:58:28 | 显示全部楼层 |阅读模式

    马上注册,获取最新影视资讯,享用更多功能,让你轻松玩转高清论坛。

    您需要 登录 才可以下载或查看,没有帐号?立即加入

    x
    [2016][德国][喜剧][托尼·厄德曼/颠父人生][1080P-20.27G][MKV]DD5.1
    8 i0 R; Z3 ?: `/ Z3 H5 S3 m6 ` b.jpg
    & ~7 h3 V) L* X- ]: V! V, Y# u◎影片基本信息
    # H: M7 t. G1 h" q) |大小: 20.27G
    & u5 z- A# ?; E( {清晰度: 1080P  l( O0 D7 r9 i3 k( n! K  r2 t( h+ |
    视频: MKV# s$ w) z0 z* W: ]2 m* @7 o
    豆瓣评分: 7.7
    % ]$ V/ ?6 b: s  [# l导演: 玛伦·阿德
    ( X2 W3 ?: \0 x& T编剧: 玛伦·阿德9 f1 Q5 b- j4 x0 X9 l! b: I
    主演: 彼得·西蒙尼舍克 / 桑德拉·惠勒 / 迈克尔·韦滕博恩 / 托马斯·洛伊布尔 / 特里斯坦·普特 / 哈德维奇·米尼斯 / 露西·拉塞尔 / 英格丽·比苏 / 弗拉德·伊凡诺夫 / 维多利亚·寇提亚斯 / 拉杜·班泽鲁 / 尼尔斯·伯曼 / 英格丽·伯克哈特
    7 ]1 _4 a$ K  h5 O! c! a6 o类型: 剧情 / 喜剧
    2 \, D) f* Y7 ]3 M: G) a/ F制片国家/地区: 德国 / 奥地利4 ?7 A. a/ V' |$ Y
    语言: 德语 / 英语 / 罗马尼亚语& Z/ D4 B5 H% }
    上映日期: 2016-05-14(戛纳电影节) / 2016-07-14(德国) / 2016-08-17(法国)2 w8 M* x5 C- H, M: q
    片长: 162分钟
    , P. z* ]; q0 y) L又名: 颠父人生(台). a; m$ f: Y; P8 c
    影片: Toni.Erdmann.2016.GERMAN.1080p.BluRay.x264.DD5.1-EA

    7 Q/ ^! S! T$ n9 N$ q5 I+ y+ N4 K◎剧情简介
    * P% }; o# c2 k" P1 r1 V$ X       Inès在一家位于布加勒斯特的德国大型企业工作。她的生活一直井然有序,直到她的父亲Winfried突然造访,并向她提出了这个问题:“你幸福吗?”面对这个根本无法回答的问题,她的生活开始出现一系列翻天覆地的变化。她并不喜欢自己的父亲,甚至有点以他为耻,但他却通过捏造一个名叫Toni Erdmann的诙谐人物,试图为她的生活找到一个方向。
    % h, s* w! \; r2 F- B) l3 H, U' i/ `
    -------------------------0 @  e2 e6 s+ l' _8 n
    1. Video
        K8 i' G7 }! W- a8 P
    2. ID                                       : 1
      ! u, _3 ~' J& J  [$ ^0 w
    3. Format                                   : AVC
      ; e  a, V1 ^4 |& n# Z
    4. Format/Info                              : Advanced Video Codec
      ( V; p/ N+ x0 O: |
    5. Format profile                           : [email protected]
      + e2 b% Q# T, L# e- x$ U
    6. Format settings, CABAC                   : Yes
      # ]) P* A: d6 C7 T
    7. Format settings, ReFrames                : 4 frames
      & @* n; Z+ s5 h1 X
    8. Codec ID                                 : V_MPEG4/ISO/AVC
      8 f% g! x# ^3 Z( A. N8 [' ?
    9. Duration                                 : 2h 42mn
      9 E2 `' J: }# o( r" ?& q
    10. Bit rate                                 : 17.2 Mbps
      3 v* B0 Z6 ?' F6 c- b
    11. Width                                    : 1 920 pixels
      7 j! {( ]  d3 h; |- ^( \
    12. Height                                   : 1 040 pixels) ]/ f' N2 X2 c* k/ ?6 c  W
    13. Display aspect ratio                     : 1.85:1
      . l0 {6 |2 R$ G2 d- {! ~: ?
    14. Frame rate mode                          : Constant
      0 {+ P, V4 h. M3 v( Z; ?( Z! z
    15. Frame rate                               : 24.000 fps! ?$ p& b2 m( |
    16. Color space                              : YUV
      * V6 Q" i0 g7 @3 x+ y6 ~  z! k
    17. Chroma subsampling                       : 4:2:0
        |/ v' H9 W0 }; |1 d
    18. Bit depth                                : 8 bits
      ! t+ b% p. ?( O2 ^1 r7 V
    19. Scan type                                : Progressive- P, O* S, l' Y7 ~# }
    20. Bits/(Pixel*Frame)                       : 0.358
      / P4 l! \& J' v8 A' n  G" }# G5 [
    21. Stream size                              : 19.4 GiB (96%)
      7 D+ q1 J% W, U- B* a6 U: {+ o4 h
    22. Title                                    : -EA' y3 u/ a+ ?% r1 L' X9 q+ z
    23. Writing library                          : x264 core 148 r2744+55 950084e t_mod_Custom [[email protected] X86_64]. T% N" \! H$ E3 G
    24. Encoding settings                        : cabac=1 / ref=4 / deblock=1:-3:-3 / analyse=0x3:0x113 / me=umh / subme=10 / psy=1 / fade_compensate=0.00 / psy_rd=1.04:0.00 / mixed_ref=1 / me_range=32 / chroma_me=1 / trellis=2 / 8x8dct=1 / cqm=0 / deadzone=21,11 / fast_pskip=0 / chroma_qp_offset=-2 / threads=24 / lookahead_threads=4 / sliced_threads=0 / nr=0 / decimate=0 / interlaced=0 / bluray_compat=0 / constrained_intra=0 / fgo=0 / bframes=7 / b_pyramid=2 / b_adapt=2 / b_bias=0 / direct=3 / weightb=1 / open_gop=0 / weightp=2 / keyint=240 / keyint_min=23 / scenecut=40 / intra_refresh=0 / rc_lookahead=60 / rc=crf / mbtree=0 / crf=18.0000 / qcomp=0.75 / qpmin=0:0:0 / qpmax=69:69:69 / qpstep=4 / vbv_maxrate=62500 / vbv_bufsize=78125 / crf_max=0.0 / nal_hrd=none / filler=0 / ip_ratio=1.30 / pb_ratio=1.20 / aq=3:0.80 / aq-sensitivity=10.00 / aq-factor=1.00:1.00:1.00 / aq2=1:0.70 / aq2-sensitivity=15.00 / aq2-factor=1.00:1.00:1.00 / aq3=1:[0.70:0.70]:[0.70:0.70]:[0.70:0.70]:[0.70:0.70] / aq3-sensitivity=10.00 / aq3-factor=[1.00:1.00]:[1.00:1.00]:[1.00:1.00] / aq3-boundary=192:64:24
      & |% b1 g" F- P2 P
    25. Language                                 : German  d* A" ]! [# b: o! e
    26. Default                                  : Yes2 h" \( h! }4 f' \
    27. Forced                                   : No1 f9 _( f, t, G2 t: t& A2 h; x
    28. Color range                              : Limited
      : h- V$ N/ g7 {/ F
    29. Color primaries                          : BT.709
      $ e' M* ^5 v, F7 e3 R2 f) l
    30. Transfer characteristics                 : BT.709: @% l8 }$ n8 k
    31. Matrix coefficients                      : BT.709
      7 [8 E* @& f4 Q  @7 o, j

    32. + Q8 D  r* v; e+ e( o, B6 a2 L* h
    33. Audio #1
      0 e: L/ [$ c- P, F4 b, S; f9 F
    34. ID                                       : 2# B# D! s5 v% v1 E: |, _! ~
    35. Format                                   : AC-3" [" C& n4 q% T( Y* z0 A
    36. Format/Info                              : Audio Coding 3
      ; v. A8 g1 s6 N2 y( u1 F
    37. Mode extension                           : CM (complete main)0 M! M+ Q% G" O9 b, j" f
    38. Format settings, Endianness              : Big
      * Q9 O4 \# P6 k8 f2 O
    39. Codec ID                                 : A_AC3
      0 ^6 U' C2 X' J* R5 X  }7 |. t/ P
    40. Duration                                 : 2h 42mn( k1 o, ~; N( b* T6 _. ?- }! |
    41. Bit rate mode                            : Constant* H, B! h  I0 n/ B6 {4 V0 n
    42. Bit rate                                 : 640 Kbps/ b; B  P# f! D; L  q! R0 G4 F
    43. Channel(s)                               : 6 channels8 }6 f7 E4 z* k0 s$ Z2 d. b
    44. Channel positions                        : Front: L C R, Side: L R, LFE3 b" U7 J& y; ]% ?$ t: B9 p/ }
    45. Sampling rate                            : 48.0 KHz# d# t: |& f" o
    46. Frame rate                               : 31.250 fps (1536 spf)2 l+ s- F( ?5 e# E( G: h6 L; a" }
    47. Compression mode                         : Lossy
      8 y1 d( ]4 D; K; `1 X2 y
    48. Stream size                              : 743 MiB (4%)+ D2 w+ f* l4 a  K6 t8 x* m2 ]
    49. Language                                 : German
      : B" M8 i1 h3 X8 X* J2 a7 A
    50. Default                                  : Yes# d7 x0 [- T. |+ j/ T( [7 a
    51. Forced                                   : Yes
      8 Q0 ^7 q9 N3 R9 O

    52. % I. i6 s1 h5 Y' y4 F
    53. Audio #2
      2 f9 K& O! }2 B" i5 F/ z
    54. ID                                       : 31 K; C4 q! ~7 y2 o/ X% \; s+ j
    55. Format                                   : AAC8 G! R2 P4 N4 `* P9 ]: n) z
    56. Format/Info                              : Advanced Audio Codec
      2 f5 c4 l) n3 P1 r. i
    57. Format profile                           : HE-AAC / LC0 v; S: r' Y5 x  T" s4 _
    58. Codec ID                                 : A_AAC
      . S4 C# n3 a9 v* T7 l. g0 F9 k
    59. Duration                                 : 2h 42mn0 ]3 U) s0 E4 n8 n6 l# C5 I: u- t
    60. Bit rate                                 : 64.0 Kbps
      . `+ l. G( W1 V8 d* H! t
    61. Channel(s)                               : 2 channels
      6 I& L! x2 J5 P2 V. O# U3 |
    62. Channel positions                        : Front: L R
      7 M& `: ]9 [- n+ [7 I# s4 x
    63. Sampling rate                            : 48.0 KHz / 24.0 KHz" q! S" B7 _$ C: E: B
    64. Frame rate                               : 23.438 fps (1024 spf)
      9 C  i1 F* M$ g
    65. Compression mode                         : Lossy9 i) q  p  J( \; a, }, V
    66. Delay relative to video                  : 31ms
        Z9 D% M" L# p( ?
    67. Stream size                              : 74.3 MiB (0%)# z9 b' A  ?, C6 O" u. f
    68. Title                                    : Commentary with M. Ade, S. Hüller, P. Simonischek
      ! ^: o# B1 I9 Z3 X3 S3 ?/ ]: x
    69. Language                                 : German) _* |6 u3 x0 j* n
    70. Default                                  : No8 S# T' [- r1 ]7 G/ Y
    71. Forced                                   : No
      3 |' N+ n( z: U

    72. % U8 g' n5 x- I
    73. Text #1
      ' W- y1 e2 h6 F5 a
    74. ID                                       : 4
      5 J! K+ _- f3 [. e$ l
    75. Format                                   : UTF-8
      ; p) Q* z$ L5 B2 S+ l
    76. Codec ID                                 : S_TEXT/UTF8
      $ I0 U; ^8 t& b6 e. D3 F
    77. Codec ID/Info                            : UTF-8 Plain Text+ x' B" l" e  S6 c0 k' g  I( F
    78. Duration                                 : 2h 40mn
      ; K( R% D2 O8 c3 E+ N2 v
    79. Bit rate                                 : 22 bps( l% ?: l! l4 `4 b9 y: e
    80. Count of elements                        : 869* T1 u1 b- S, g: b3 E) ^
    81. Stream size                              : 26.6 KiB (0%); n5 ?' B' r0 `; A: d9 \
    82. Title                                    : srt$ @. Q  c% s9 J
    83. Language                                 : English
      ' Y" ^; }+ [& r" L
    84. Default                                  : Yes
      - I# p. i  T0 f
    85. Forced                                   : Yes( m% t. x% x8 \2 Q/ s) O5 g
    86. 8 L9 P0 |! X- s6 C: M
    87. Text #2
      7 c( X8 L' `2 y4 U  Y
    88. ID                                       : 5
      $ y+ q4 m; b  e& v4 M3 K
    89. Format                                   : PGS
      % ^2 ~# Z* j- a2 l* k
    90. Muxing mode                              : zlib
      8 h( i* V) u9 T4 A. i- h
    91. Codec ID                                 : S_HDMV/PGS
      6 ^, A: M6 x* ?  x6 t9 p
    92. Codec ID/Info                            : Picture based subtitle format used on BDs/HD-DVDs; h% W1 l1 l- B7 P+ h  \! j/ m
    93. Duration                                 : 2h 23mn4 ~& t0 P1 X+ c4 S1 c
    94. Bit rate                                 : 6 306 bps8 Z9 ~( y/ b* M# u2 k
    95. Count of elements                        : 1024. w' a7 T, d$ f. r7 @0 ]
    96. Stream size                              : 6.47 MiB (0%)0 V1 N' w7 p2 d) {: ]
    97. Title                                    : sup
      - y; ~5 R8 ~- E2 _
    98. Language                                 : German5 ^, j: B7 s7 P3 o  _
    99. Default                                  : No) H7 K( @( d- f
    100. Forced                                   : No
      + x( E( t: Z' M

    101. 9 d& K$ `1 q# L0 B4 M) e  g
    102. Text #3
      * Y/ M3 c5 Q$ [6 _$ N" V
    103. ID                                       : 6
      - r/ |6 _5 [2 \* L" t
    104. Format                                   : PGS
      # T  e" g7 P5 s
    105. Muxing mode                              : zlib
      / ]& `1 e( e, p1 I) }% r
    106. Codec ID                                 : S_HDMV/PGS
      # p2 h) ]) f/ x* a7 C
    107. Codec ID/Info                            : Picture based subtitle format used on BDs/HD-DVDs
      : U6 q0 ~1 z4 u$ _( Q) i: D) F
    108. Duration                                 : 2h 41mn
      : o  C% m( F: [& M9 R: h5 f* w* j
    109. Bit rate                                 : 19.9 Kbps7 v) K' y+ i) w" h) P
    110. Count of elements                        : 3626* x8 H0 t$ _" W1 ~) `2 f1 u$ Q
    111. Stream size                              : 23.0 MiB (0%)4 K% ^9 @5 J' _' W8 n( I' }
    112. Title                                    : sup HoH
      ; {# Q0 i# A  S! y* o
    113. Language                                 : German
      , L1 M0 q. a. Y  r
    114. Default                                  : No
      9 W" w! {9 K2 x, ^5 o& `0 l+ R- W) A# r
    115. Forced                                   : No
      5 j& I2 [# v4 ^+ l6 q
    116. / G' f/ r- u" [& d8 k
    117. Menu #1/ }! F# o# |  W% u3 ?" t4 |
    118. 00:00:00.000                             : en:00:00:00.000
      , H' P0 C! N  l
    119. 00:09:06.625                             : en:00:09:06.625% b* m- s# n- T+ e
    120. 00:18:02.917                             : en:00:18:02.917
      + g1 x# G' D* ?/ z
    121. 00:36:33.833                             : en:00:36:33.833
      / @' g' ?3 W& P
    122. 00:52:43.833                             : en:00:52:43.833( u, U" q: `% E, d
    123. 01:11:32.167                             : en:01:11:32.167) X' j# r; o7 k% u) H  p
    124. 01:36:39.917                             : en:01:36:39.917; z0 }' }. }* G- s
    125. 02:06:09.958                             : en:02:06:09.958
      8 c8 a7 y1 h- [8 w9 R
    126. 02:27:28.958                             : en:02:27:28.958
      6 g8 T8 d9 K: s" d* O& o0 f. k6 c6 w

    127. 2 R! s0 s" @$ X; A, M8 ?# w0 C
    128. Menu #20 w+ A/ P. `/ v; a" G0 Z$ ^+ e
    129. 00:00:00.097                             : en:00:00:00.097
      ! K0 D. R/ F! I# R0 K" [7 D( J
    复制代码

    $ y: p8 N$ R- j, X% D8 q-------------------------
    1 X! S, @6 E3 Q4 `◎精彩剧照5 ^6 y" n! B( d+ b9 k, o4 j  j
    0 q) x- ~5 g1 q* a
    -------------------------
    6 R+ q5 Y' t" e2 I[以上高清电影剧照来自互联网,不代表此片高清剧照]* r: o' f& x! ^: ~
    郑重声明:本站提供的所有高清电影作品均是在网上搜集,任何涉及商业盈利目的均不得使用,否则产生的一切后果将由您自己承担!本站将不对本站的任何内容负任何法律责任!该下载内容仅做宽带测试使用,请在下载后24小时内删除。请购买正
    版!6 L1 J' m. w% k
    -------------------------
    ' Y; Z: ]0 m" d7 r◎种子下载地址( \0 X# h- t: Z0 u0 l; t1 k4 V
    游客,如果您要查看本帖隐藏内容请回复
    . A4 x; d$ A; d/ p

    + \2 _4 U8 q: L
    回复

    使用道具 举报

  • TA的每日心情
    慵懒
    2017-1-6 08:33
  • 签到天数: 8 天

    连续签到: 4 天

    [LV.3]偶尔看看II

    发表于 2017-1-4 10:04:24 | 显示全部楼层
    谢谢谢谢
    ; U. K4 d% m  D谢谢谢谢
    + h; u: c3 \# d- A, f8 g谢谢谢谢
    ; V! o# D2 T) [
    回复 支持 反对

    使用道具 举报

  • TA的每日心情
    开心
    4 天前
  • 签到天数: 11 天

    连续签到: 1 天

    [LV.3]偶尔看看II

    发表于 2017-1-4 10:23:28 | 显示全部楼层
    多谢分享,人生平淡' J; A$ ]4 \0 v* g8 Z- r' g
    [发帖际遇]: imis041 发帖时在路边捡到 3 蓝光币,偷偷放进了口袋. 幸运榜 / 衰神榜
    回复 支持 反对

    使用道具 举报

  • TA的每日心情
    慵懒
    4 天前
  • 签到天数: 23 天

    连续签到: 2 天

    [LV.4]偶尔看看III

    发表于 2017-1-4 10:28:03 | 显示全部楼层
    从简介上非常让我感兴趣 谢谢楼主
      d( R, Z3 C3 W  z
    + U% A% M) |6 P& [8 E- d+ P
    [发帖际遇]: freehytoo 乐于助人,奖励 2 蓝光币. 幸运榜 / 衰神榜
    回复 支持 反对

    使用道具 举报

  • TA的每日心情
    无聊
    2017-1-4 09:51
  • 签到天数: 1 天

    连续签到: 1 天

    [LV.1]初来乍到

    发表于 2017-1-4 10:29:05 | 显示全部楼层
    多谢分享,人生平淡" G# b
    回复 支持 反对

    使用道具 举报

  • TA的每日心情
    无聊
    2017-1-4 09:51
  • 签到天数: 1 天

    连续签到: 1 天

    [LV.1]初来乍到

    发表于 2017-1-4 10:35:13 | 显示全部楼层

    7 D2 I; e. ?# D6 t! F  @$ C% \下载来看看,感觉还可以
    [发帖际遇]: zjiewang 乐于助人,奖励 3 蓝光币. 幸运榜 / 衰神榜
    回复 支持 反对

    使用道具 举报

  • TA的每日心情
    擦汗
    昨天 11:42
  • 签到天数: 188 天

    连续签到: 1 天

    [LV.7]常住居民III

    发表于 2017-1-4 11:03:23 | 显示全部楼层
    感谢楼主分享。' ^+ d8 T: {: k. ^& {
    回复 支持 反对

    使用道具 举报

  • TA的每日心情
    开心
    6 天前
  • 签到天数: 115 天

    连续签到: 1 天

    [LV.6]常住居民II

    发表于 2017-1-4 11:26:59 | 显示全部楼层
    感谢楼主分享; ?( C. D3 G9 \! O- b) l
    回复 支持 反对

    使用道具 举报

  • TA的每日心情
    郁闷
    3 天前
  • 签到天数: 71 天

    连续签到: 1 天

    [LV.6]常住居民II

    发表于 2017-1-4 11:40:35 | 显示全部楼层
    感谢楼主分享!!!
    回复 支持 反对

    使用道具 举报

    您需要登录后才可以回帖 登录 | 立即加入

    本版积分规则

    您尚未登录,请登陆后浏览更精彩内容!
     立即加入
    找回密码

    QQ| 客服QQ:15608182|Archiver|手机版|小黑屋| 蓝光论坛  

    返回顶部
    x

    关注微信账号赢取VIP资格

      

    Copyright © 2001-2013 Comsenz Inc.  Template by 蓝光电影论坛 All Rights Reserved.

    Powered by Discuz! X3.2( ICP备11019663号-4 )

    快速回复 返回顶部 返回列表