找回密码

蓝光电影论坛

查看: 3734|回复: 200

[喜剧] [2016][德国][喜剧][托尼·厄德曼/颠父人生][1080P-20.27G][MKV]DD5.1

  [复制链接]
  • TA的每日心情
    无聊
    2015-10-16 08:48
  • 签到天数: 5 天

    连续签到: 1 天

    [LV.2]偶尔看看I

     成长值: 12175

    发表于 2017-1-4 09:58:28 | 显示全部楼层 |阅读模式

    马上注册,获取最新影视资讯,享用更多功能,让你轻松玩转高清论坛。

    您需要 登录 才可以下载或查看,没有帐号?立即加入

    x
    [2016][德国][喜剧][托尼·厄德曼/颠父人生][1080P-20.27G][MKV]DD5.11 B- g; l$ R5 N7 o8 m5 w& Y
    b.jpg
    , c3 P3 A1 I2 B3 {3 s◎影片基本信息
    $ ?$ w& l( Q- b1 P4 v, P' T1 H大小: 20.27G7 v- |0 f- g& z! G1 I' y4 K
    清晰度: 1080P% M/ [% P$ \8 Q# \
    视频: MKV
    + T8 h# b  @- Y% S. I( q豆瓣评分: 7.7
    8 S" b" s) s% K. w% M& A; k$ {2 @导演: 玛伦·阿德* d7 X3 V- R4 g4 W
    编剧: 玛伦·阿德
    6 s# t; F2 E' D: m  U主演: 彼得·西蒙尼舍克 / 桑德拉·惠勒 / 迈克尔·韦滕博恩 / 托马斯·洛伊布尔 / 特里斯坦·普特 / 哈德维奇·米尼斯 / 露西·拉塞尔 / 英格丽·比苏 / 弗拉德·伊凡诺夫 / 维多利亚·寇提亚斯 / 拉杜·班泽鲁 / 尼尔斯·伯曼 / 英格丽·伯克哈特
    : k% G+ X3 o; o. D& W类型: 剧情 / 喜剧
    3 ^& G; ^$ r: S! Z$ `0 T制片国家/地区: 德国 / 奥地利( {' y0 i4 E% r- Q, w
    语言: 德语 / 英语 / 罗马尼亚语
      E) T+ A1 l3 t7 e- \( {  y1 M上映日期: 2016-05-14(戛纳电影节) / 2016-07-14(德国) / 2016-08-17(法国)
    + X# l# E; ?& T( M- i7 S片长: 162分钟
    & C- ?! A7 T3 W2 E+ Z) B( ?& `又名: 颠父人生(台)7 i7 w! U6 _$ X1 Q# f8 V
    影片: Toni.Erdmann.2016.GERMAN.1080p.BluRay.x264.DD5.1-EA
    ; Y% s; o/ {1 x6 [$ c; Q
    ◎剧情简介0 x3 \- Q, t' J
           Inès在一家位于布加勒斯特的德国大型企业工作。她的生活一直井然有序,直到她的父亲Winfried突然造访,并向她提出了这个问题:“你幸福吗?”面对这个根本无法回答的问题,她的生活开始出现一系列翻天覆地的变化。她并不喜欢自己的父亲,甚至有点以他为耻,但他却通过捏造一个名叫Toni Erdmann的诙谐人物,试图为她的生活找到一个方向。
    ! L8 N1 u2 b4 E$ A( ?) i8 C1 g9 o
    " k2 E3 x) G4 [; H, e: e4 g* J! m1 v) M-------------------------
    & h/ x$ I/ i% G4 ]. L# |
    1. Video$ T. [0 f7 U  n+ Y8 X
    2. ID                                       : 1
      * k/ [1 Y) |! Z$ ~5 |
    3. Format                                   : AVC. |+ u" ]/ |9 H1 l
    4. Format/Info                              : Advanced Video Codec% A7 M7 i% g7 u6 I! e
    5. Format profile                           : High@L4.1
      $ x# s* z( v% B. b* ?7 n. j
    6. Format settings, CABAC                   : Yes  o- I- U; [+ P8 U
    7. Format settings, ReFrames                : 4 frames
      # r  R( E1 i" F
    8. Codec ID                                 : V_MPEG4/ISO/AVC
      6 Y2 s& T/ j( }. i# }6 ~
    9. Duration                                 : 2h 42mn* K7 p& r7 b; {
    10. Bit rate                                 : 17.2 Mbps
      8 b/ ^) U  `/ n" Z4 `
    11. Width                                    : 1 920 pixels& P9 o+ D8 B' h' B% M# Q
    12. Height                                   : 1 040 pixels* L; s9 ]% }$ T( w' x
    13. Display aspect ratio                     : 1.85:1
      ! W% a$ m: Q2 Y& e7 H2 q- C
    14. Frame rate mode                          : Constant1 q. i# M" ~* Y+ L) _  M' Q9 p9 P
    15. Frame rate                               : 24.000 fps$ A- N3 U$ t3 V& k$ g
    16. Color space                              : YUV
      ( c1 z* I8 `( N5 T  ~
    17. Chroma subsampling                       : 4:2:0; S! n  U- `6 G5 ]( Y
    18. Bit depth                                : 8 bits
        r8 w, X/ y3 u2 s$ H2 F8 L
    19. Scan type                                : Progressive8 L3 e* v- W: P9 F/ l& z- _
    20. Bits/(Pixel*Frame)                       : 0.358
      9 o7 B- R+ l; x" Z7 S9 W5 J$ b+ J
    21. Stream size                              : 19.4 GiB (96%)# k& h* ?2 i" C0 J, I( V+ G
    22. Title                                    : -EA
      * J% n" q* `9 k% g6 f, ]- t- Q- L
    23. Writing library                          : x264 core 148 r2744+55 950084e t_mod_Custom [8-bit@all X86_64]
      / h1 ^9 u+ p: I5 C3 R
    24. Encoding settings                        : cabac=1 / ref=4 / deblock=1:-3:-3 / analyse=0x3:0x113 / me=umh / subme=10 / psy=1 / fade_compensate=0.00 / psy_rd=1.04:0.00 / mixed_ref=1 / me_range=32 / chroma_me=1 / trellis=2 / 8x8dct=1 / cqm=0 / deadzone=21,11 / fast_pskip=0 / chroma_qp_offset=-2 / threads=24 / lookahead_threads=4 / sliced_threads=0 / nr=0 / decimate=0 / interlaced=0 / bluray_compat=0 / constrained_intra=0 / fgo=0 / bframes=7 / b_pyramid=2 / b_adapt=2 / b_bias=0 / direct=3 / weightb=1 / open_gop=0 / weightp=2 / keyint=240 / keyint_min=23 / scenecut=40 / intra_refresh=0 / rc_lookahead=60 / rc=crf / mbtree=0 / crf=18.0000 / qcomp=0.75 / qpmin=0:0:0 / qpmax=69:69:69 / qpstep=4 / vbv_maxrate=62500 / vbv_bufsize=78125 / crf_max=0.0 / nal_hrd=none / filler=0 / ip_ratio=1.30 / pb_ratio=1.20 / aq=3:0.80 / aq-sensitivity=10.00 / aq-factor=1.00:1.00:1.00 / aq2=1:0.70 / aq2-sensitivity=15.00 / aq2-factor=1.00:1.00:1.00 / aq3=1:[0.70:0.70]:[0.70:0.70]:[0.70:0.70]:[0.70:0.70] / aq3-sensitivity=10.00 / aq3-factor=[1.00:1.00]:[1.00:1.00]:[1.00:1.00] / aq3-boundary=192:64:24
      0 H& M4 K" e# O" p
    25. Language                                 : German* b7 K% {* h0 _' H7 a. h8 Y
    26. Default                                  : Yes
      ; P6 \: `: N9 N" O7 ~  q5 E
    27. Forced                                   : No
      ! _  Q( a/ A7 a( y8 }( X
    28. Color range                              : Limited
      1 E( P6 ~) A" r  R
    29. Color primaries                          : BT.709/ W: \* Y. |0 }
    30. Transfer characteristics                 : BT.709) I8 }) l: C7 e, Z
    31. Matrix coefficients                      : BT.709
      2 O* q2 d5 a6 [& |8 f$ d8 k

    32. ) _/ \& G7 E: O. T
    33. Audio #11 r9 e4 ]6 k/ |7 q+ f
    34. ID                                       : 25 \" [$ A& B2 v" L$ b
    35. Format                                   : AC-3% \+ D/ k# ^! T7 E& V8 ^
    36. Format/Info                              : Audio Coding 3* |- [9 @" ]5 Y2 P
    37. Mode extension                           : CM (complete main)
      . Y) Y9 l  S8 _0 p$ ~+ J6 f+ K( g
    38. Format settings, Endianness              : Big
      # P+ r( N8 N2 [7 J2 y' c) v
    39. Codec ID                                 : A_AC3
      + k* ~1 U0 m. K- n" G, K
    40. Duration                                 : 2h 42mn
        |3 @2 _0 R! p* L! a5 k; H
    41. Bit rate mode                            : Constant
      ( H7 i" W, d$ z  X. n; b- A, l. Y' Q2 j
    42. Bit rate                                 : 640 Kbps; O  [8 Y4 E0 [# z* q( U" ^
    43. Channel(s)                               : 6 channels
      / V" z9 S" r, n' o
    44. Channel positions                        : Front: L C R, Side: L R, LFE
      % \; ?& v) O  s7 \
    45. Sampling rate                            : 48.0 KHz
        S6 }  p# u% u4 V" b: ~
    46. Frame rate                               : 31.250 fps (1536 spf)
      5 C$ }4 ^8 U7 d8 A& `% n. i
    47. Compression mode                         : Lossy
      3 I9 A  o* u" F6 b2 p
    48. Stream size                              : 743 MiB (4%)
      5 |+ H" j1 F, N# |9 ^& R" M
    49. Language                                 : German
      3 s* o9 ~+ j2 T# s, r$ \- m! p
    50. Default                                  : Yes2 d, v: M- K& ]% ~
    51. Forced                                   : Yes! c: x2 f8 V4 H% ]0 w4 {2 L+ F% q% a5 I

    52. $ Y: }4 @; k: Y1 H
    53. Audio #2
      2 d7 T3 Z5 K6 z/ ^' B! F1 q
    54. ID                                       : 38 a% T2 ?& X  V2 d# v/ v2 d
    55. Format                                   : AAC
      ) c. _3 Q9 N0 |- E$ e( L
    56. Format/Info                              : Advanced Audio Codec  W/ ^7 d: @5 s* F* j) ?! w
    57. Format profile                           : HE-AAC / LC% i6 `' u7 j0 L1 F6 W/ C' K
    58. Codec ID                                 : A_AAC/ l8 B: c# C+ C3 Q
    59. Duration                                 : 2h 42mn: ]. v# d/ U9 w7 `3 i( U
    60. Bit rate                                 : 64.0 Kbps0 G& e7 M% W* j% o8 M' z
    61. Channel(s)                               : 2 channels
      . ?8 W) }/ i/ X9 a4 o- h4 {+ ?2 Y
    62. Channel positions                        : Front: L R
      ( \; ~+ F' g$ D
    63. Sampling rate                            : 48.0 KHz / 24.0 KHz
      & W+ Y5 }8 W& H0 Y3 o
    64. Frame rate                               : 23.438 fps (1024 spf)
      # Q7 L0 d9 o, {
    65. Compression mode                         : Lossy
      ' l( l% p; x: b6 a
    66. Delay relative to video                  : 31ms+ p7 q1 J* \! b7 p* [0 Y
    67. Stream size                              : 74.3 MiB (0%)
      . w$ e# A2 v: F( `4 E. }+ D" e
    68. Title                                    : Commentary with M. Ade, S. Hüller, P. Simonischek
      # w+ H9 g; B: N' L3 U; H& }2 K
    69. Language                                 : German1 h! R% R1 j! F0 g$ W* X8 U! |* ?
    70. Default                                  : No
      , y& A& K, Q2 r; H$ @) P- n1 r
    71. Forced                                   : No
      - _( V" Z9 D9 |

    72. ! Y; ?2 X/ E' ]$ |2 k
    73. Text #1
      3 J  y( H* U0 ?# p" ?7 y# ]/ o' v
    74. ID                                       : 4
      8 C7 v; L# u/ w2 R7 |* O+ g
    75. Format                                   : UTF-8
        _: r4 g$ G0 T1 p9 |
    76. Codec ID                                 : S_TEXT/UTF86 y3 ]. V. }* a( `: {0 a
    77. Codec ID/Info                            : UTF-8 Plain Text
      " ]1 H7 [& d" t( s  P
    78. Duration                                 : 2h 40mn! {5 h0 H$ W- w& ~
    79. Bit rate                                 : 22 bps
      # g- q4 r% ]$ Q$ ~, P
    80. Count of elements                        : 8698 I! T3 P+ y! a2 c* K. l3 r
    81. Stream size                              : 26.6 KiB (0%)# y& l) I+ H, g$ J& r7 {- }
    82. Title                                    : srt3 n. ?9 ]/ k3 B+ y
    83. Language                                 : English
      9 `4 N1 ]+ A& y7 a
    84. Default                                  : Yes
      8 M+ J  @- ~& S9 ], R/ K
    85. Forced                                   : Yes
      ! P# C3 U! O6 h1 j) k; [
    86. * a  C1 w6 R) i' j
    87. Text #27 o% W" _: Z/ d% J6 j
    88. ID                                       : 5
      2 c' d, [, ~. ^; o8 T, Z3 P
    89. Format                                   : PGS* c" w  k. i% P% Q4 n
    90. Muxing mode                              : zlib: Z7 C; w1 @. f- W( `
    91. Codec ID                                 : S_HDMV/PGS
      / T7 H) D, ?9 X0 ^, i
    92. Codec ID/Info                            : Picture based subtitle format used on BDs/HD-DVDs" H6 c4 m: g) Y* s9 o: D; b( c
    93. Duration                                 : 2h 23mn4 X3 X; |. F; P0 J
    94. Bit rate                                 : 6 306 bps
      $ C& [3 i$ i) B7 O8 z; a( c+ s# \9 s
    95. Count of elements                        : 1024
      ! ^' `) y  \: ?
    96. Stream size                              : 6.47 MiB (0%)+ \4 V( O/ ~7 O  H- U' S1 L
    97. Title                                    : sup
      4 N4 y/ b& p- D8 g9 c" @) H, n
    98. Language                                 : German
      . p8 j4 f) f: @0 c  F+ Y
    99. Default                                  : No
      ' V# B. `" B$ @: F
    100. Forced                                   : No  B: j: Z" Q% H+ _
    101. " K. b( A% h6 O; M3 n0 @
    102. Text #3, o( }& ]  z4 `: z& ?: n
    103. ID                                       : 6
      ( E* [: L; s1 n8 q- V% K4 d# }. e
    104. Format                                   : PGS
      ) H; r+ s, A& k0 R5 ~
    105. Muxing mode                              : zlib
      # [$ }9 w# _5 c
    106. Codec ID                                 : S_HDMV/PGS
      9 h% J+ n2 k! j3 X, {$ P4 v9 V
    107. Codec ID/Info                            : Picture based subtitle format used on BDs/HD-DVDs( @- w' C2 ?' T# W" Y! k$ r5 v
    108. Duration                                 : 2h 41mn: ]# P( q7 C4 E/ f
    109. Bit rate                                 : 19.9 Kbps
      1 I1 b4 V# \  E7 Q! ^4 \% I- B
    110. Count of elements                        : 36261 i* ]+ S( @6 X5 Y2 ~! n
    111. Stream size                              : 23.0 MiB (0%)
      1 `" |% ]& d' B$ L, k
    112. Title                                    : sup HoH: r( v) l% s5 i! Y8 E7 d% s9 ^
    113. Language                                 : German
      # b7 S0 i! ]7 V3 w
    114. Default                                  : No
      : x$ X! h7 L8 G8 a: C0 L2 W  Y
    115. Forced                                   : No3 ?) F& y* L  ?7 P5 }
    116. 9 k8 F8 w* `9 [1 |2 g3 J: U
    117. Menu #1
      0 B* [4 F! F( Q# T) j$ t* I
    118. 00:00:00.000                             : en:00:00:00.000
      ' E, x& i7 w1 J$ _7 z4 _
    119. 00:09:06.625                             : en:00:09:06.625% m$ A0 y- ]" h0 X
    120. 00:18:02.917                             : en:00:18:02.9179 o  _! L0 T" _- G# G! @, ~
    121. 00:36:33.833                             : en:00:36:33.833
      9 r' ~, Z9 g' E( X
    122. 00:52:43.833                             : en:00:52:43.833
      $ g1 h' f5 ~1 h
    123. 01:11:32.167                             : en:01:11:32.167
      7 K. @- F1 _  O( v2 g7 b
    124. 01:36:39.917                             : en:01:36:39.917" K9 G( E) i7 k
    125. 02:06:09.958                             : en:02:06:09.9589 s' e1 U4 B" S! ]7 o% U
    126. 02:27:28.958                             : en:02:27:28.958
      & ?! z& {8 H4 n/ B9 ~

    127. 2 Y& C6 R/ z& W
    128. Menu #2' E5 A; U6 ^, ~: \/ @6 ?! V$ n5 _
    129. 00:00:00.097                             : en:00:00:00.097
      ) [* @, L, X# h# {
    复制代码

    6 d8 @6 Z9 o8 J( J4 W  u-------------------------
    % S  X2 Y/ D  F( B2 _2 _! ?◎精彩剧照
    ) ?# V2 b; L3 G; \: S
    - B4 P5 u1 Z2 i. W- u3 @-------------------------
    1 i5 Y! Z4 |2 r% I6 C) G1 L# b[以上高清电影剧照来自互联网,不代表此片高清剧照]4 ]* Z' a/ U% c+ e, H
    郑重声明:本站提供的所有高清电影作品均是在网上搜集,任何涉及商业盈利目的均不得使用,否则产生的一切后果将由您自己承担!本站将不对本站的任何内容负任何法律责任!该下载内容仅做宽带测试使用,请在下载后24小时内删除。请购买正
    版!
    : t; B8 Q; @" b; q/ |" u-------------------------
    $ V5 _4 ^+ L/ x0 r$ Y6 i8 T5 A; ^& S. L/ f◎种子下载地址
    ; x9 B4 l: O; Q, z/ O% y) g
    游客,如果您要查看本帖隐藏内容请回复

    8 O4 @' b- C) }- [+ q- P/ a6 Y% X
    " c4 P7 T2 A' }, V! l  e
    回复

    使用道具 举报

  • TA的每日心情
    慵懒
    2017-10-11 10:03
  • 签到天数: 14 天

    连续签到: 3 天

    [LV.3]偶尔看看II

    发表于 2017-1-4 10:04:24 | 显示全部楼层
    谢谢谢谢5 y4 x8 k/ N3 A; A3 k$ ?
    谢谢谢谢
    , p& S* X7 `+ c2 o' I' R0 O谢谢谢谢
    ' O: ^% }$ ^% d" D& A5 b
    回复 支持 反对

    使用道具 举报

  • TA的每日心情
    开心
    5 天前
  • 签到天数: 63 天

    连续签到: 2 天

    [LV.6]常住居民II

    发表于 2017-1-4 10:23:28 | 显示全部楼层
    多谢分享,人生平淡
    6 }1 Y: J7 ~/ ?% a* F
    [发帖际遇]: imis041 发帖时在路边捡到 3 蓝光币,偷偷放进了口袋. 幸运榜 / 衰神榜
    回复 支持 反对

    使用道具 举报

  • TA的每日心情
    奋斗
    2017-10-31 14:21
  • 签到天数: 72 天

    连续签到: 1 天

    [LV.6]常住居民II

    发表于 2017-1-4 10:28:03 | 显示全部楼层
    从简介上非常让我感兴趣 谢谢楼主, y" A" h5 e4 B- p" R6 c9 C/ _7 e

    " v+ d* @& G. P" A1 E! E
    [发帖际遇]: freehytoo 乐于助人,奖励 2 蓝光币. 幸运榜 / 衰神榜
    回复 支持 反对

    使用道具 举报

  • TA的每日心情
    开心
    2017-11-7 14:07
  • 签到天数: 2 天

    连续签到: 1 天

    [LV.1]初来乍到

    发表于 2017-1-4 10:29:05 | 显示全部楼层
    多谢分享,人生平淡" G# b
    回复 支持 反对

    使用道具 举报

  • TA的每日心情
    开心
    2017-11-7 14:07
  • 签到天数: 2 天

    连续签到: 1 天

    [LV.1]初来乍到

    发表于 2017-1-4 10:35:13 | 显示全部楼层
    5 }. w' c' v$ E; D; X
    下载来看看,感觉还可以
    [发帖际遇]: zjiewang 乐于助人,奖励 3 蓝光币. 幸运榜 / 衰神榜
    回复 支持 反对

    使用道具 举报

  • TA的每日心情
    奋斗
    2017-10-13 08:38
  • 签到天数: 291 天

    连续签到: 4 天

    [LV.8]以坛为家I

    发表于 2017-1-4 11:03:23 | 显示全部楼层
    感谢楼主分享。
    9 A+ T& m9 c& u8 w
    回复 支持 反对

    使用道具 举报

  • TA的每日心情
    开心
    2017-10-25 22:13
  • 签到天数: 191 天

    连续签到: 2 天

    [LV.7]常住居民III

    发表于 2017-1-4 11:26:59 | 显示全部楼层
    感谢楼主分享+ F, i7 v! t" x
    回复 支持 反对

    使用道具 举报

  • TA的每日心情
    郁闷
    7 天前
  • 签到天数: 116 天

    连续签到: 1 天

    [LV.6]常住居民II

    发表于 2017-1-4 11:40:35 | 显示全部楼层
    感谢楼主分享!!!
    回复 支持 反对

    使用道具 举报

    您需要登录后才可以回帖 登录 | 立即加入

    本版积分规则

    您尚未登录,请登陆后浏览更精彩内容!
     立即加入
    找回密码

    QQ| 广告勿扰。QQ:15608182(不一定在线,留言看到会处理,勿催)|如有侵权内容请联系:www1080net#qq.com 会及时删除|Archiver|手机版| 蓝光论坛  

    返回顶部
    x

    关注微信 不迷路

    Copyright © 2001-2013 Comsenz Inc.  Template by 蓝光电影论坛 All Rights Reserved.

    Powered by Discuz! X3.2( ICP备11019663号-4 )

    快速回复 返回顶部 返回列表