找回密码

蓝光电影论坛

查看: 2931|回复: 189

[喜剧] [2016][德国][喜剧][托尼·厄德曼/颠父人生][1080P-20.27G][MKV]DD5.1

  [复制链接]
  • TA的每日心情
    无聊
    2015-10-16 08:48
  • 签到天数: 5 天

    连续签到: 1 天

    [LV.2]偶尔看看I

     成长值: 8650

    发表于 2017-1-4 09:58:28 | 显示全部楼层 |阅读模式

    马上注册,获取最新影视资讯,享用更多功能,让你轻松玩转高清论坛。

    您需要 登录 才可以下载或查看,没有帐号?立即加入

    x
    [2016][德国][喜剧][托尼·厄德曼/颠父人生][1080P-20.27G][MKV]DD5.1
    ! J* u& N* k8 x! f' R b.jpg
    # F: c# W9 H3 _% f( g3 Y◎影片基本信息
    6 ~. f7 x: l% f! q大小: 20.27G
    / T! s. r4 e! b# Z清晰度: 1080P: o+ M9 t" |  U* [" U( L( x; Q. i
    视频: MKV
    : I3 }0 Y& T9 B9 {豆瓣评分: 7.7: R  a4 q# _* R8 O6 W! \
    导演: 玛伦·阿德# B* _, O' D) g
    编剧: 玛伦·阿德4 }  }) j% E) ~* `+ y: v
    主演: 彼得·西蒙尼舍克 / 桑德拉·惠勒 / 迈克尔·韦滕博恩 / 托马斯·洛伊布尔 / 特里斯坦·普特 / 哈德维奇·米尼斯 / 露西·拉塞尔 / 英格丽·比苏 / 弗拉德·伊凡诺夫 / 维多利亚·寇提亚斯 / 拉杜·班泽鲁 / 尼尔斯·伯曼 / 英格丽·伯克哈特: o% _. [+ X! B- f' N0 H
    类型: 剧情 / 喜剧% x& P3 H8 n3 S$ E! i( A
    制片国家/地区: 德国 / 奥地利, n4 C0 ?- A; x
    语言: 德语 / 英语 / 罗马尼亚语
    : }+ m# a1 K! F/ N7 ]0 A7 s0 |上映日期: 2016-05-14(戛纳电影节) / 2016-07-14(德国) / 2016-08-17(法国)
    # P" h! Y8 ?! m, C3 D5 }  z片长: 162分钟& h# U3 u+ e8 }; j# u& D; A+ n; [4 u
    又名: 颠父人生(台)
    4 }( r/ g, ?, M! {影片: Toni.Erdmann.2016.GERMAN.1080p.BluRay.x264.DD5.1-EA
    2 R  n: r$ y' }% @" G( [# z
    ◎剧情简介6 L  o) U, r5 \  K% B2 W) C; U
           Inès在一家位于布加勒斯特的德国大型企业工作。她的生活一直井然有序,直到她的父亲Winfried突然造访,并向她提出了这个问题:“你幸福吗?”面对这个根本无法回答的问题,她的生活开始出现一系列翻天覆地的变化。她并不喜欢自己的父亲,甚至有点以他为耻,但他却通过捏造一个名叫Toni Erdmann的诙谐人物,试图为她的生活找到一个方向。
    0 ~' u- f/ v4 J% J8 v; ]; E/ t8 g* G, w
    -------------------------! A& S- T+ E" f( \8 H& Z  t
    1. Video
      & G% h" u/ e# y9 Q
    2. ID                                       : 1' K: Z; F" l2 x  A8 c6 |
    3. Format                                   : AVC
      2 r- w3 }: K  f0 B: s: E
    4. Format/Info                              : Advanced Video Codec! {2 b4 A2 f: z6 i. ]0 Z- k4 @
    5. Format profile                           : [email protected]
      2 i4 a: D, |2 `+ t4 F
    6. Format settings, CABAC                   : Yes- F, ?- i$ G# {
    7. Format settings, ReFrames                : 4 frames
      2 P5 S0 i# M2 w4 e" f4 S8 L
    8. Codec ID                                 : V_MPEG4/ISO/AVC
      4 Y2 F. W, r0 e! `/ N7 a6 i/ y' u8 e
    9. Duration                                 : 2h 42mn
      * ^6 N- Z+ o, j( ~5 ~: h1 z4 F
    10. Bit rate                                 : 17.2 Mbps2 b  L" ]5 M. d5 }3 X
    11. Width                                    : 1 920 pixels
      ; A5 U) y: Z4 D' B( H
    12. Height                                   : 1 040 pixels! ]5 q3 v% O0 g' e: m- u
    13. Display aspect ratio                     : 1.85:1
      3 z/ y: g! Q; g3 S: \$ a8 l5 I
    14. Frame rate mode                          : Constant
      3 Y# m1 h: P  K2 _# w. P4 ^6 b( y
    15. Frame rate                               : 24.000 fps# B3 C5 n, u! ^7 z7 Z" ]
    16. Color space                              : YUV+ @2 s/ A$ `) j0 M/ h) L: v) I
    17. Chroma subsampling                       : 4:2:0
      , E7 o; y* a  S/ i
    18. Bit depth                                : 8 bits1 U" i$ a' J# r/ v) n
    19. Scan type                                : Progressive
      $ f; f  ^8 W( N
    20. Bits/(Pixel*Frame)                       : 0.358
      ( \2 L& S* Z4 j' g
    21. Stream size                              : 19.4 GiB (96%)
      7 U# I  g* D; O7 J
    22. Title                                    : -EA
      5 _0 J: a! R6 f( ?0 `3 X
    23. Writing library                          : x264 core 148 r2744+55 950084e t_mod_Custom [[email protected] X86_64]
      ) p3 M# O& ~) M0 d* O. V
    24. Encoding settings                        : cabac=1 / ref=4 / deblock=1:-3:-3 / analyse=0x3:0x113 / me=umh / subme=10 / psy=1 / fade_compensate=0.00 / psy_rd=1.04:0.00 / mixed_ref=1 / me_range=32 / chroma_me=1 / trellis=2 / 8x8dct=1 / cqm=0 / deadzone=21,11 / fast_pskip=0 / chroma_qp_offset=-2 / threads=24 / lookahead_threads=4 / sliced_threads=0 / nr=0 / decimate=0 / interlaced=0 / bluray_compat=0 / constrained_intra=0 / fgo=0 / bframes=7 / b_pyramid=2 / b_adapt=2 / b_bias=0 / direct=3 / weightb=1 / open_gop=0 / weightp=2 / keyint=240 / keyint_min=23 / scenecut=40 / intra_refresh=0 / rc_lookahead=60 / rc=crf / mbtree=0 / crf=18.0000 / qcomp=0.75 / qpmin=0:0:0 / qpmax=69:69:69 / qpstep=4 / vbv_maxrate=62500 / vbv_bufsize=78125 / crf_max=0.0 / nal_hrd=none / filler=0 / ip_ratio=1.30 / pb_ratio=1.20 / aq=3:0.80 / aq-sensitivity=10.00 / aq-factor=1.00:1.00:1.00 / aq2=1:0.70 / aq2-sensitivity=15.00 / aq2-factor=1.00:1.00:1.00 / aq3=1:[0.70:0.70]:[0.70:0.70]:[0.70:0.70]:[0.70:0.70] / aq3-sensitivity=10.00 / aq3-factor=[1.00:1.00]:[1.00:1.00]:[1.00:1.00] / aq3-boundary=192:64:24
      ! z" k- G0 a7 @2 }
    25. Language                                 : German0 p8 o" G* u0 u7 U, o
    26. Default                                  : Yes
      ( l4 ~0 Q3 k1 I& A" Y4 N4 I
    27. Forced                                   : No3 ?' S7 w. N* K' L6 t9 _
    28. Color range                              : Limited
      4 X5 \, Z. M" ~3 s; P7 q( \% _
    29. Color primaries                          : BT.709
      ) f8 p, Z: k5 }2 V' F
    30. Transfer characteristics                 : BT.709
      2 I6 w" t; S, S+ j3 @# `
    31. Matrix coefficients                      : BT.709
        z" R5 A0 _+ E6 U& q- V

    32. ! M) p8 S4 ?& P2 Z0 G- i
    33. Audio #1
        ]$ b3 {& @7 A+ _+ M7 U
    34. ID                                       : 2: i8 ^' ^* W( [
    35. Format                                   : AC-3
      % S' F* Q4 @5 J* c5 _+ v
    36. Format/Info                              : Audio Coding 3' R+ z( T, I0 F- U# X
    37. Mode extension                           : CM (complete main)
      / e  }6 ?+ ]  T; ?
    38. Format settings, Endianness              : Big9 q3 W; ^( T% C8 {" E5 F$ n
    39. Codec ID                                 : A_AC3! O0 T7 S& @) J. s: K: j5 E
    40. Duration                                 : 2h 42mn
      8 {* `3 x, _6 L5 Z  G1 u8 Q  }
    41. Bit rate mode                            : Constant
      6 e  S) g3 z2 C7 T  j. Q. O
    42. Bit rate                                 : 640 Kbps
      & m6 c; l1 r9 F8 B* b4 }$ E: @
    43. Channel(s)                               : 6 channels6 _5 ?& R- j. V, ]% u$ W4 E  e
    44. Channel positions                        : Front: L C R, Side: L R, LFE
      8 {6 q+ z+ M6 [: o" ~
    45. Sampling rate                            : 48.0 KHz
      6 P7 W5 Y# ~9 |# T1 X
    46. Frame rate                               : 31.250 fps (1536 spf)
      2 r' t3 U2 f/ T6 R/ a
    47. Compression mode                         : Lossy7 }% B% t  V4 X* x6 \
    48. Stream size                              : 743 MiB (4%)
      + G( t, ^) J2 u$ N
    49. Language                                 : German/ c8 J! ^  p. |; r: J" y
    50. Default                                  : Yes
      ) ~7 @- u6 _8 }, {# v, c
    51. Forced                                   : Yes: D0 \* j% e6 ~
    52. ' }# n7 @1 }/ O
    53. Audio #2; w0 |5 Y2 P1 L- r* X
    54. ID                                       : 3% i9 z/ s* x4 g: ]6 I8 E" o
    55. Format                                   : AAC7 l7 R! Z6 S2 h1 G" u2 o
    56. Format/Info                              : Advanced Audio Codec
      ; j% I% f# I3 L) {+ M2 I
    57. Format profile                           : HE-AAC / LC
      5 _3 n1 M$ P" B) A
    58. Codec ID                                 : A_AAC) }; U- E& x7 }& x9 [, ~( O
    59. Duration                                 : 2h 42mn
      # M  @& N1 Z6 a  k! W" O( H( j) o
    60. Bit rate                                 : 64.0 Kbps
      1 K7 w) L# q. @' J# _# {
    61. Channel(s)                               : 2 channels+ v2 K* w5 F* m  M$ v! F- S' v6 O
    62. Channel positions                        : Front: L R2 P  \2 y* K! A! T" @
    63. Sampling rate                            : 48.0 KHz / 24.0 KHz
      * |% X: ]2 N1 \6 N( P' ~9 Q
    64. Frame rate                               : 23.438 fps (1024 spf)
      6 d% s: _, b9 K8 P0 R# `
    65. Compression mode                         : Lossy
      6 t2 }; c& M8 ?
    66. Delay relative to video                  : 31ms9 C# x" l/ {: c( m" E  F! T
    67. Stream size                              : 74.3 MiB (0%): W, U- S# }# G
    68. Title                                    : Commentary with M. Ade, S. Hüller, P. Simonischek/ T1 X. s: t2 X9 ]4 y! Y; p- m1 S
    69. Language                                 : German
      2 S# r; ~; \$ J# T
    70. Default                                  : No
      " B8 H2 G  L) h. Y
    71. Forced                                   : No' e, z6 a' o! N! D9 g$ H

    72. 3 G0 I' {$ _) R( E: |8 i: q; n- @
    73. Text #1* ^( o; }0 u. ]) R2 z, c3 n
    74. ID                                       : 4. B' ]8 d/ ^7 {4 a3 u0 V
    75. Format                                   : UTF-8- l; _6 o4 d! X# Y
    76. Codec ID                                 : S_TEXT/UTF8
      % Q7 j  E1 {; Z; e! N4 [
    77. Codec ID/Info                            : UTF-8 Plain Text
      . ]6 Y2 I; w9 d1 ^8 a
    78. Duration                                 : 2h 40mn
      4 C7 N. t# Q- n. ^: A
    79. Bit rate                                 : 22 bps
      % v% a. E) \8 p" ^
    80. Count of elements                        : 869! X) [* _  `; `8 n8 K5 Y* l
    81. Stream size                              : 26.6 KiB (0%)
      7 W# h. N4 f" D  W5 ]8 \. i$ e$ D' o
    82. Title                                    : srt
      ; T) e* k) B. m8 ]5 K' i6 x. f
    83. Language                                 : English
      ( }" P  o: F* w' f! e/ `
    84. Default                                  : Yes4 k1 M( D4 v. [0 d) j
    85. Forced                                   : Yes# U0 P) C/ r. E- x* S9 l; i
    86. 2 F  U( z* d! s" Z8 d0 B$ o
    87. Text #2
      * X# [9 s. a. E
    88. ID                                       : 5
      ( w' ~  W2 z( }& |; F
    89. Format                                   : PGS2 O  f$ `  m/ e6 V% \: C, B
    90. Muxing mode                              : zlib
      9 P6 R% o+ a6 }- ~
    91. Codec ID                                 : S_HDMV/PGS& s6 U6 O: e$ k! a2 E) S' n5 ?& M
    92. Codec ID/Info                            : Picture based subtitle format used on BDs/HD-DVDs/ U6 k" h8 [0 J7 m8 ^
    93. Duration                                 : 2h 23mn
      - I! E- x* l8 m, u
    94. Bit rate                                 : 6 306 bps6 P% s% ?* d- }" v, p' M
    95. Count of elements                        : 10243 u# I. G8 [9 o
    96. Stream size                              : 6.47 MiB (0%)
      6 I6 k) L; r( ~: e! ^2 J( |; {! i
    97. Title                                    : sup! N; l+ |6 e$ B- {6 E6 _
    98. Language                                 : German' z  }6 E* `* |* G9 U  i2 o5 v
    99. Default                                  : No
      2 X7 \1 j" e. F
    100. Forced                                   : No
        c1 ^/ \* I. D7 R/ R9 n7 t6 l
    101. # T6 |8 V) G0 t6 S3 r) Y
    102. Text #3
      % I/ }" E) o1 D  `
    103. ID                                       : 6
      % p: X. Z, e  G9 J
    104. Format                                   : PGS
      % R# X8 A+ v5 F( Z& Y
    105. Muxing mode                              : zlib: s. ?4 ], y/ P% ~
    106. Codec ID                                 : S_HDMV/PGS
      & O" _% X* Q# x5 x' G; b/ N
    107. Codec ID/Info                            : Picture based subtitle format used on BDs/HD-DVDs$ r) ]2 o, e. q& H2 x/ e/ o
    108. Duration                                 : 2h 41mn7 z0 ^6 C1 D5 H4 V$ }
    109. Bit rate                                 : 19.9 Kbps
      2 I9 @* a  `( W1 }4 G4 e$ l
    110. Count of elements                        : 3626
      $ m  d' X+ a, y1 a5 z- ]6 q
    111. Stream size                              : 23.0 MiB (0%)& v2 G9 {; k. n- Y
    112. Title                                    : sup HoH# [: D( K& H3 e4 h7 e) r6 j+ ]
    113. Language                                 : German
      1 y7 l$ K2 I: @7 E) v" P
    114. Default                                  : No$ Q  p: ?, E  y9 }: E$ `/ V) [
    115. Forced                                   : No
      0 @5 I5 `: n$ p+ F( Q, k: K

    116. - u) H% X+ V& t; q) t$ O% Y
    117. Menu #1
      6 ?$ ?- q6 x+ x0 Q
    118. 00:00:00.000                             : en:00:00:00.000$ S/ K3 b  J, v; Y; c4 |
    119. 00:09:06.625                             : en:00:09:06.625- X. m# w- F# T
    120. 00:18:02.917                             : en:00:18:02.917, J0 c) W, @' ^3 I" j. _
    121. 00:36:33.833                             : en:00:36:33.833! ~0 ?2 O/ y( B" g/ O6 l: d
    122. 00:52:43.833                             : en:00:52:43.833
      ) E0 J2 L' y6 R8 B
    123. 01:11:32.167                             : en:01:11:32.167
      7 n9 [$ D; O) w% t5 F; a" E6 k( f
    124. 01:36:39.917                             : en:01:36:39.917
      % x3 F2 E9 S% R( t) O+ c* f
    125. 02:06:09.958                             : en:02:06:09.958" O7 ?* i! R- F
    126. 02:27:28.958                             : en:02:27:28.958& i6 ~) ~5 K. o6 ~; J
    127. + q7 z- _- o" E5 K1 d
    128. Menu #2
      7 |- T- B( M# q  D0 P# C* _0 D; N: p
    129. 00:00:00.097                             : en:00:00:00.097
      ( P. D# U( u2 Y/ W% p' e
    复制代码
    8 N, s/ C$ x3 I) s2 h
    -------------------------: G/ N+ h* h; {* F" i# z$ T" c$ U
    ◎精彩剧照# N3 i- k, Z0 Z$ l5 |
    7 T% r( [+ E* _. `
    -------------------------9 l7 Q- Y) k: m1 m; X4 G, W
    [以上高清电影剧照来自互联网,不代表此片高清剧照]$ [" r& [( ]' \3 w% V
    郑重声明:本站提供的所有高清电影作品均是在网上搜集,任何涉及商业盈利目的均不得使用,否则产生的一切后果将由您自己承担!本站将不对本站的任何内容负任何法律责任!该下载内容仅做宽带测试使用,请在下载后24小时内删除。请购买正
    版!! a2 f: e$ q+ ~& C, e! k
    -------------------------
    1 E: i, L! O' x◎种子下载地址
      ]# ]  C0 @( K) `6 {& A  g( N
    游客,如果您要查看本帖隐藏内容请回复

    7 A9 Q) }7 N+ u  J/ G3 z' }
    ' k$ e, G7 F6 [( W- B. u
    回复

    使用道具 举报

  • TA的每日心情
    慵懒
    2017-1-6 08:33
  • 签到天数: 8 天

    连续签到: 4 天

    [LV.3]偶尔看看II

    发表于 2017-1-4 10:04:24 | 显示全部楼层
    谢谢谢谢9 x2 T. E9 R: e, ~' t- D
    谢谢谢谢2 O" z2 W. M0 e6 R9 d4 r$ n* S( v2 c
    谢谢谢谢
    7 y8 [9 m* J1 P
    回复 支持 反对

    使用道具 举报

  • TA的每日心情
    开心
    1 小时前
  • 签到天数: 34 天

    连续签到: 1 天

    [LV.5]常住居民I

    发表于 2017-1-4 10:23:28 | 显示全部楼层
    多谢分享,人生平淡
    3 Y' ^' j) [/ Q1 j5 [
    [发帖际遇]: imis041 发帖时在路边捡到 3 蓝光币,偷偷放进了口袋. 幸运榜 / 衰神榜
    回复 支持 反对

    使用道具 举报

  • TA的每日心情
    奋斗
    3 天前
  • 签到天数: 48 天

    连续签到: 1 天

    [LV.5]常住居民I

    发表于 2017-1-4 10:28:03 | 显示全部楼层
    从简介上非常让我感兴趣 谢谢楼主# b5 W% q0 A9 S$ ^; z% k9 o

    - G; n! D: E9 m
    [发帖际遇]: freehytoo 乐于助人,奖励 2 蓝光币. 幸运榜 / 衰神榜
    回复 支持 反对

    使用道具 举报

  • TA的每日心情
    无聊
    2017-1-4 09:51
  • 签到天数: 1 天

    连续签到: 1 天

    [LV.1]初来乍到

    发表于 2017-1-4 10:29:05 | 显示全部楼层
    多谢分享,人生平淡" G# b
    回复 支持 反对

    使用道具 举报

  • TA的每日心情
    无聊
    2017-1-4 09:51
  • 签到天数: 1 天

    连续签到: 1 天

    [LV.1]初来乍到

    发表于 2017-1-4 10:35:13 | 显示全部楼层
    ( N- k# K9 I5 N3 ]: P- z
    下载来看看,感觉还可以
    [发帖际遇]: zjiewang 乐于助人,奖励 3 蓝光币. 幸运榜 / 衰神榜
    回复 支持 反对

    使用道具 举报

  • TA的每日心情
    擦汗
    3 天前
  • 签到天数: 237 天

    连续签到: 2 天

    [LV.7]常住居民III

    发表于 2017-1-4 11:03:23 | 显示全部楼层
    感谢楼主分享。
    4 X2 c/ i% E9 e9 _+ B1 W
    回复 支持 反对

    使用道具 举报

  • TA的每日心情
    开心
    2 小时前
  • 签到天数: 163 天

    连续签到: 2 天

    [LV.7]常住居民III

    发表于 2017-1-4 11:26:59 | 显示全部楼层
    感谢楼主分享
    3 ]0 r6 s  ~" }: X: B3 |
    回复 支持 反对

    使用道具 举报

  • TA的每日心情
    郁闷
    2017-5-9 15:14
  • 签到天数: 85 天

    连续签到: 2 天

    [LV.6]常住居民II

    发表于 2017-1-4 11:40:35 | 显示全部楼层
    感谢楼主分享!!!
    回复 支持 反对

    使用道具 举报

    您需要登录后才可以回帖 登录 | 立即加入

    本版积分规则

    您尚未登录,请登陆后浏览更精彩内容!
     立即加入
    找回密码

    QQ| 客服QQ:15608182|Archiver|手机版|小黑屋| 蓝光论坛  

    返回顶部
    x

    关注微信有机会赢取VIP资格

      

    Copyright © 2001-2013 Comsenz Inc.  Template by 蓝光电影论坛 All Rights Reserved.

    Powered by Discuz! X3.2( ICP备11019663号-4 )

    快速回复 返回顶部 返回列表