找回密码

蓝光电影论坛

查看: 2643|回复: 183

[喜剧] [2016][德国][喜剧][托尼·厄德曼/颠父人生][1080P-20.27G][MKV]DD5.1

  [复制链接]
  • TA的每日心情
    无聊
    2015-10-16 08:48
  • 签到天数: 5 天

    连续签到: 1 天

    [LV.2]偶尔看看I

     成长值: 7645

    发表于 2017-1-4 09:58:28 | 显示全部楼层 |阅读模式

    马上注册,获取最新影视资讯,享用更多功能,让你轻松玩转高清论坛。

    您需要 登录 才可以下载或查看,没有帐号?立即加入

    x
    [2016][德国][喜剧][托尼·厄德曼/颠父人生][1080P-20.27G][MKV]DD5.11 v. M. \; s/ Z4 ?* k
    b.jpg
    * j* V( i$ x% Q. V$ |. Z◎影片基本信息! d7 r. I  @" t4 X
    大小: 20.27G) t2 ^7 n; q9 d" S6 t: p  L
    清晰度: 1080P: k$ M/ W. D9 B; l8 F) C
    视频: MKV
    ( |0 o7 _( L+ |# d2 H豆瓣评分: 7.71 A/ k0 t" I& ~  Q
    导演: 玛伦·阿德
    6 I% x3 O* W) D; j% l; \) A% I" h编剧: 玛伦·阿德
    & {! ^' M* p& P. J/ H) q& j- k主演: 彼得·西蒙尼舍克 / 桑德拉·惠勒 / 迈克尔·韦滕博恩 / 托马斯·洛伊布尔 / 特里斯坦·普特 / 哈德维奇·米尼斯 / 露西·拉塞尔 / 英格丽·比苏 / 弗拉德·伊凡诺夫 / 维多利亚·寇提亚斯 / 拉杜·班泽鲁 / 尼尔斯·伯曼 / 英格丽·伯克哈特" r% A  B. \% f0 X3 c
    类型: 剧情 / 喜剧9 t( Y6 K$ G1 p& z0 F$ F# O
    制片国家/地区: 德国 / 奥地利
    , n( ]5 `& R& T1 G' B语言: 德语 / 英语 / 罗马尼亚语
    + r8 z7 w1 W0 y$ ^7 |4 v9 ?上映日期: 2016-05-14(戛纳电影节) / 2016-07-14(德国) / 2016-08-17(法国)
    1 u. Z4 J  V0 D" \片长: 162分钟& n: T) i% O0 Y  q
    又名: 颠父人生(台)1 B- X% A0 V% m+ g
    影片: Toni.Erdmann.2016.GERMAN.1080p.BluRay.x264.DD5.1-EA

    + ]2 j; }8 A4 J5 X; p) N. s: F1 f◎剧情简介- [! r9 ~6 Y+ Z$ q( J
           Inès在一家位于布加勒斯特的德国大型企业工作。她的生活一直井然有序,直到她的父亲Winfried突然造访,并向她提出了这个问题:“你幸福吗?”面对这个根本无法回答的问题,她的生活开始出现一系列翻天覆地的变化。她并不喜欢自己的父亲,甚至有点以他为耻,但他却通过捏造一个名叫Toni Erdmann的诙谐人物,试图为她的生活找到一个方向。
    9 c: T& T3 c0 L' K& Z
    : i0 n: G3 g, m& W8 M  E-------------------------
    $ G) s! J$ [" Q$ Q8 t6 A1 q2 U
    1. Video5 |: R0 D, \; A5 I/ b  }
    2. ID                                       : 1
      % |  ^2 t7 J. ~. G
    3. Format                                   : AVC; C. e9 M0 k$ A$ `! F: a  `+ H% p
    4. Format/Info                              : Advanced Video Codec
      5 z9 P1 O" K: c. L+ D) V
    5. Format profile                           : [email protected]
      1 d3 R+ U* W* u) B4 o1 O8 `6 H8 e
    6. Format settings, CABAC                   : Yes6 T3 P; m# f  k; c
    7. Format settings, ReFrames                : 4 frames6 Z1 M/ k; D) \
    8. Codec ID                                 : V_MPEG4/ISO/AVC. S, ~- c: A' \6 |2 P
    9. Duration                                 : 2h 42mn! X: A2 B4 |& n6 s: ]; |6 L- d
    10. Bit rate                                 : 17.2 Mbps1 {0 e/ e$ K1 ~& S1 i7 K7 P% K
    11. Width                                    : 1 920 pixels
      + ?+ w; r; s* U, m/ i0 t. q/ }, L
    12. Height                                   : 1 040 pixels
      " o" M" t1 j7 s% Q
    13. Display aspect ratio                     : 1.85:1
      " H' M" g3 z7 @# `5 @4 @
    14. Frame rate mode                          : Constant# L: H; f' i* m' c* J/ _5 s
    15. Frame rate                               : 24.000 fps
      # {+ U/ b* D' o9 e" w
    16. Color space                              : YUV
      0 w% _- ?8 f8 D! ^5 j# f
    17. Chroma subsampling                       : 4:2:05 R* h, s8 k. v8 C. G
    18. Bit depth                                : 8 bits
      * Z+ N& b( @9 \6 W
    19. Scan type                                : Progressive$ Q1 {% ?6 ^6 o' m
    20. Bits/(Pixel*Frame)                       : 0.358" q) r- D! i, L, V
    21. Stream size                              : 19.4 GiB (96%)
      ' S  S7 f" n0 q  V( z; V
    22. Title                                    : -EA
      + G, r# f9 F6 j; ]3 }5 K9 g
    23. Writing library                          : x264 core 148 r2744+55 950084e t_mod_Custom [[email protected] X86_64]
      : o. G. |1 V  ^: i$ y/ N
    24. Encoding settings                        : cabac=1 / ref=4 / deblock=1:-3:-3 / analyse=0x3:0x113 / me=umh / subme=10 / psy=1 / fade_compensate=0.00 / psy_rd=1.04:0.00 / mixed_ref=1 / me_range=32 / chroma_me=1 / trellis=2 / 8x8dct=1 / cqm=0 / deadzone=21,11 / fast_pskip=0 / chroma_qp_offset=-2 / threads=24 / lookahead_threads=4 / sliced_threads=0 / nr=0 / decimate=0 / interlaced=0 / bluray_compat=0 / constrained_intra=0 / fgo=0 / bframes=7 / b_pyramid=2 / b_adapt=2 / b_bias=0 / direct=3 / weightb=1 / open_gop=0 / weightp=2 / keyint=240 / keyint_min=23 / scenecut=40 / intra_refresh=0 / rc_lookahead=60 / rc=crf / mbtree=0 / crf=18.0000 / qcomp=0.75 / qpmin=0:0:0 / qpmax=69:69:69 / qpstep=4 / vbv_maxrate=62500 / vbv_bufsize=78125 / crf_max=0.0 / nal_hrd=none / filler=0 / ip_ratio=1.30 / pb_ratio=1.20 / aq=3:0.80 / aq-sensitivity=10.00 / aq-factor=1.00:1.00:1.00 / aq2=1:0.70 / aq2-sensitivity=15.00 / aq2-factor=1.00:1.00:1.00 / aq3=1:[0.70:0.70]:[0.70:0.70]:[0.70:0.70]:[0.70:0.70] / aq3-sensitivity=10.00 / aq3-factor=[1.00:1.00]:[1.00:1.00]:[1.00:1.00] / aq3-boundary=192:64:24
      ' {4 p7 g$ {$ Y
    25. Language                                 : German6 J  z( Z6 B) V! w3 X  M5 \5 I
    26. Default                                  : Yes
        w- g7 ?3 s1 K  ~
    27. Forced                                   : No0 e' H) E# Y0 M+ {2 x7 \% t0 |" p
    28. Color range                              : Limited
      & z0 z6 a( E0 w% N( C/ w$ O
    29. Color primaries                          : BT.709
      , P; Q% p# X4 O
    30. Transfer characteristics                 : BT.709  ]) p1 o& t. t5 a) d4 ~3 f( ?
    31. Matrix coefficients                      : BT.709
      ' L1 x/ P, Q$ ?. F

    32. 1 M' e7 }8 j0 @4 I
    33. Audio #16 E! `" X2 g+ l
    34. ID                                       : 2
      3 o% ^6 x1 `  _2 I/ n
    35. Format                                   : AC-3
      , Q: ^0 E. w# w  L5 _- e
    36. Format/Info                              : Audio Coding 3
      0 J* z! s8 C0 Q* y4 U
    37. Mode extension                           : CM (complete main)
      0 P) q. ^+ j( C8 K
    38. Format settings, Endianness              : Big
      4 M8 m, E% W$ d( r7 N  y
    39. Codec ID                                 : A_AC3, N1 c( X8 y5 z# l
    40. Duration                                 : 2h 42mn
      + o7 F6 ?) u9 [0 s( L$ w3 v; z7 a4 Z
    41. Bit rate mode                            : Constant5 ^5 i; A  E5 Q% e
    42. Bit rate                                 : 640 Kbps
      2 X0 S/ D0 T8 E1 I" L% Y
    43. Channel(s)                               : 6 channels5 o+ [+ m, P7 H5 K6 o/ K$ `/ e+ T
    44. Channel positions                        : Front: L C R, Side: L R, LFE: h4 W# ~; [" r2 ], {! u! w: v
    45. Sampling rate                            : 48.0 KHz# j5 N3 G7 w8 G. k# M' L
    46. Frame rate                               : 31.250 fps (1536 spf)
      2 K# k, p- P. K2 k! v  S. q
    47. Compression mode                         : Lossy8 p: d0 q8 ?( A" T/ q9 _3 h; W% |
    48. Stream size                              : 743 MiB (4%)  _8 R( Z$ Y# k2 Y/ C
    49. Language                                 : German0 u, w7 C1 j" G1 x% B: o" K
    50. Default                                  : Yes/ G1 j# J7 _9 W0 v5 e; A
    51. Forced                                   : Yes
      0 v3 k! u! }1 f+ m# d

    52. . l2 P% p% p) b# H4 I3 \
    53. Audio #27 P' w8 a" T+ g6 q! b3 C
    54. ID                                       : 3
      ; o, N% q; @9 ?5 r1 I8 d( t
    55. Format                                   : AAC
      ; t3 o7 O; ^# o+ q+ s: r) ?9 K, }
    56. Format/Info                              : Advanced Audio Codec% v4 F8 e; ]) ]. A5 ?
    57. Format profile                           : HE-AAC / LC
      ( O) ]' Q+ C/ y
    58. Codec ID                                 : A_AAC) q; ~6 _  G- y) p: C! j# }& e( k
    59. Duration                                 : 2h 42mn
      6 m1 D. X, W' h9 A- F
    60. Bit rate                                 : 64.0 Kbps" G# R% f3 [. d9 b/ F
    61. Channel(s)                               : 2 channels2 Z1 A6 X0 a& ^7 I; L! b
    62. Channel positions                        : Front: L R
      " _( P  O3 F% i6 K; `
    63. Sampling rate                            : 48.0 KHz / 24.0 KHz
      8 g; A* {- X3 }$ ~
    64. Frame rate                               : 23.438 fps (1024 spf)+ I7 c' t/ q8 Y& F4 T' g: }& q3 }
    65. Compression mode                         : Lossy
      + y  D; |" i7 a8 \5 H$ g6 W3 x
    66. Delay relative to video                  : 31ms$ y) v' `/ k6 \/ y  q
    67. Stream size                              : 74.3 MiB (0%)
      ; Z# a0 E1 J: _6 q
    68. Title                                    : Commentary with M. Ade, S. Hüller, P. Simonischek: o! g3 w' Z5 T4 S2 k; h1 }
    69. Language                                 : German
      % D0 r7 S: x6 D* I) R
    70. Default                                  : No
      ! a7 o/ C  N2 P- I1 |
    71. Forced                                   : No) ]: t- g- T" b" a8 w9 b1 l
    72. 9 E9 Z; e, O2 J
    73. Text #1
      3 j, H) W5 J: g: C0 W3 L& @; J) o
    74. ID                                       : 4; [. a6 N3 x1 h
    75. Format                                   : UTF-8$ x' K0 J" I5 J2 ^) ]
    76. Codec ID                                 : S_TEXT/UTF8
        v- w6 s# z3 [+ E, u, J7 c
    77. Codec ID/Info                            : UTF-8 Plain Text$ q# I( t/ V7 A
    78. Duration                                 : 2h 40mn: I" o9 ?4 ]! U* v2 m; Z
    79. Bit rate                                 : 22 bps
      + [' W7 E1 ], C* ?3 b" U; ]! a' [
    80. Count of elements                        : 869
      $ g( o. R1 ^4 g5 K4 {7 s/ {' N
    81. Stream size                              : 26.6 KiB (0%)/ F( A( R7 Z% C$ }
    82. Title                                    : srt" Q! _+ g! A; Z, r& m
    83. Language                                 : English
      " ]# d' {0 ^8 x9 e5 K* l1 e
    84. Default                                  : Yes
      1 q# ~# o+ I8 F. ?$ i
    85. Forced                                   : Yes+ ~6 p! ~' j) \) W. i

    86. " O$ l. r  U& K" l9 A
    87. Text #2
      " K- y4 c1 q2 p: Y3 B8 j! Q
    88. ID                                       : 5
        M! J+ G- ^6 D% b  }3 c7 s2 X% \
    89. Format                                   : PGS  r3 r1 B* R% v3 A% D# J6 ~
    90. Muxing mode                              : zlib
      - m" m1 \: f$ u) }9 S% E
    91. Codec ID                                 : S_HDMV/PGS
        @) L7 R: v0 m2 l
    92. Codec ID/Info                            : Picture based subtitle format used on BDs/HD-DVDs
      ! D* t% w$ K, B% \8 R
    93. Duration                                 : 2h 23mn2 \& a, C2 ~' r" D! t4 T. D
    94. Bit rate                                 : 6 306 bps; ^" R3 L/ Q- w  q. S8 N
    95. Count of elements                        : 1024( @# I! u% m" R) }& h7 V2 A
    96. Stream size                              : 6.47 MiB (0%)# T# ?  l( P* H4 O1 x) |
    97. Title                                    : sup' P0 B3 l2 g) w* ]. x
    98. Language                                 : German
      * F! j  ?( e, S: C# o. I
    99. Default                                  : No
      , e% O0 T* [3 k2 G" E" d
    100. Forced                                   : No
      7 _1 E& z* [! q

    101. ( f0 O/ Q+ J( N. O
    102. Text #3, t' h9 U1 o- {* J4 P+ w- v
    103. ID                                       : 6
      5 P( e& T$ w) p1 k6 l
    104. Format                                   : PGS' ~* {1 V0 Q/ o
    105. Muxing mode                              : zlib
      ! T* T4 d5 M5 i) @* j% I
    106. Codec ID                                 : S_HDMV/PGS3 e1 ?9 i; k9 Q7 T0 F
    107. Codec ID/Info                            : Picture based subtitle format used on BDs/HD-DVDs/ ~. F7 j& I5 o; Q; g/ r% ^3 A/ i5 r
    108. Duration                                 : 2h 41mn
      " ^( d5 ?, p/ @1 T* s+ L$ u- [
    109. Bit rate                                 : 19.9 Kbps) c& P: a% m$ N+ ?( P6 _* p+ h
    110. Count of elements                        : 36267 b  L& x* s" u) w
    111. Stream size                              : 23.0 MiB (0%)6 H3 |( o9 Q+ Y" f% M8 m$ ~9 ?
    112. Title                                    : sup HoH% @5 P. v! X+ r5 r- S" u+ v  n
    113. Language                                 : German
      4 E% ~) H2 n* C; M# e: H
    114. Default                                  : No( v9 |& D" ]; n. w
    115. Forced                                   : No
        \* i5 C1 j7 C$ `2 r, n

    116. # f+ K; |2 E1 @9 p, ^
    117. Menu #1
      $ r* y2 s. [& ]4 n9 n
    118. 00:00:00.000                             : en:00:00:00.000
      , ?. l" n# k% G! b# _/ \( T
    119. 00:09:06.625                             : en:00:09:06.625
      3 F# K  Z7 C5 N0 ?. h8 g. ^% {
    120. 00:18:02.917                             : en:00:18:02.917
      4 }# _% {; w. D9 J# j5 W" |
    121. 00:36:33.833                             : en:00:36:33.833
      7 q$ Z# ^+ R' W% ^) G7 G1 Q! h
    122. 00:52:43.833                             : en:00:52:43.833* @( ?/ M) T& A" z; b9 C$ u; m
    123. 01:11:32.167                             : en:01:11:32.167
      . M: r' w3 f1 J( V
    124. 01:36:39.917                             : en:01:36:39.917
      1 g2 y* j5 M( D
    125. 02:06:09.958                             : en:02:06:09.958
      % j) C) Y% [- e1 p+ O, K! w2 I
    126. 02:27:28.958                             : en:02:27:28.9583 I5 v3 P5 I4 O+ |

    127. $ l7 }. f5 L; @& V( e8 u
    128. Menu #2
      # B0 _" r; E2 \( D9 J, p* P
    129. 00:00:00.097                             : en:00:00:00.097$ f5 j, P" @( c( O! e4 L3 M( Y. m
    复制代码
    ; K6 Z1 W0 E' I" j
    -------------------------
    1 [5 z# v; @! l$ |8 [+ N" N: y6 x. }. G◎精彩剧照) W/ O! p/ B$ M9 k  K% V- A' x: r, P

    3 u& a3 l) I) M& h8 ~/ U-------------------------
    ; i3 W& _* C/ e5 ?2 f[以上高清电影剧照来自互联网,不代表此片高清剧照]
    1 M/ F' \) r9 Z2 \郑重声明:本站提供的所有高清电影作品均是在网上搜集,任何涉及商业盈利目的均不得使用,否则产生的一切后果将由您自己承担!本站将不对本站的任何内容负任何法律责任!该下载内容仅做宽带测试使用,请在下载后24小时内删除。请购买正
    版!
    ! \& n& ^* H1 H6 `* w-------------------------$ W! G" c. P0 `4 k# t0 L
    ◎种子下载地址+ \+ r% d2 ]* [" \9 L" _6 X0 B/ c0 [
    游客,如果您要查看本帖隐藏内容请回复

    0 G" _# X1 q2 R
    ' p/ C7 H$ W# T" o
    回复

    使用道具 举报

  • TA的每日心情
    慵懒
    2017-1-6 08:33
  • 签到天数: 8 天

    连续签到: 4 天

    [LV.3]偶尔看看II

    发表于 2017-1-4 10:04:24 | 显示全部楼层
    谢谢谢谢) B7 x0 f& O) O( ?; t3 J+ w7 I5 h
    谢谢谢谢
    1 ]. z% A8 h8 H2 p, W/ T* \4 y谢谢谢谢& y+ O/ }) [$ O( {& L
    回复 支持 反对

    使用道具 举报

  • TA的每日心情
    开心
    4 天前
  • 签到天数: 19 天

    连续签到: 1 天

    [LV.4]偶尔看看III

    发表于 2017-1-4 10:23:28 | 显示全部楼层
    多谢分享,人生平淡
    " A. k* y8 ?0 w; u  `8 n" g7 }- c
    [发帖际遇]: imis041 发帖时在路边捡到 3 蓝光币,偷偷放进了口袋. 幸运榜 / 衰神榜
    回复 支持 反对

    使用道具 举报

  • TA的每日心情
    开心
    2017-3-17 17:50
  • 签到天数: 27 天

    连续签到: 1 天

    [LV.4]偶尔看看III

    发表于 2017-1-4 10:28:03 | 显示全部楼层
    从简介上非常让我感兴趣 谢谢楼主
    0 ^& G( n: U0 ~) H
    % u' @% x/ T0 f( Y( Q/ a4 t
    [发帖际遇]: freehytoo 乐于助人,奖励 2 蓝光币. 幸运榜 / 衰神榜
    回复 支持 反对

    使用道具 举报

  • TA的每日心情
    无聊
    2017-1-4 09:51
  • 签到天数: 1 天

    连续签到: 1 天

    [LV.1]初来乍到

    发表于 2017-1-4 10:29:05 | 显示全部楼层
    多谢分享,人生平淡" G# b
    回复 支持 反对

    使用道具 举报

  • TA的每日心情
    无聊
    2017-1-4 09:51
  • 签到天数: 1 天

    连续签到: 1 天

    [LV.1]初来乍到

    发表于 2017-1-4 10:35:13 | 显示全部楼层

    . D1 M  r9 d  k下载来看看,感觉还可以
    [发帖际遇]: zjiewang 乐于助人,奖励 3 蓝光币. 幸运榜 / 衰神榜
    回复 支持 反对

    使用道具 举报

  • TA的每日心情
    奋斗
    前天 09:52
  • 签到天数: 214 天

    连续签到: 5 天

    [LV.7]常住居民III

    发表于 2017-1-4 11:03:23 | 显示全部楼层
    感谢楼主分享。
    * W3 i7 O1 b* Q1 R0 H9 C' W6 \
    回复 支持 反对

    使用道具 举报

  • TA的每日心情
    开心
    3 小时前
  • 签到天数: 137 天

    连续签到: 2 天

    [LV.7]常住居民III

    发表于 2017-1-4 11:26:59 | 显示全部楼层
    感谢楼主分享% o" V$ n3 H& h/ K+ b2 o
    回复 支持 反对

    使用道具 举报

  • TA的每日心情
    无聊
    5 天前
  • 签到天数: 77 天

    连续签到: 1 天

    [LV.6]常住居民II

    发表于 2017-1-4 11:40:35 | 显示全部楼层
    感谢楼主分享!!!
    回复 支持 反对

    使用道具 举报

    您需要登录后才可以回帖 登录 | 立即加入

    本版积分规则

    您尚未登录,请登陆后浏览更精彩内容!
     立即加入
    找回密码

    QQ| 客服QQ:15608182|Archiver|手机版|小黑屋| 蓝光论坛  

    返回顶部
    x

    关注微信有机会赢取VIP资格

      

    Copyright © 2001-2013 Comsenz Inc.  Template by 蓝光电影论坛 All Rights Reserved.

    Powered by Discuz! X3.2( ICP备11019663号-4 )

    快速回复 返回顶部 返回列表