找回密码

蓝光电影论坛

查看: 3149|回复: 191

[喜剧] [2016][德国][喜剧][托尼·厄德曼/颠父人生][1080P-20.27G][MKV]DD5.1

  [复制链接]
  • TA的每日心情
    无聊
    2015-10-16 08:48
  • 签到天数: 5 天

    连续签到: 1 天

    [LV.2]偶尔看看I

     成长值: 9505

    发表于 2017-1-4 09:58:28 | 显示全部楼层 |阅读模式

    马上注册,获取最新影视资讯,享用更多功能,让你轻松玩转高清论坛。

    您需要 登录 才可以下载或查看,没有帐号?立即加入

    x
    [2016][德国][喜剧][托尼·厄德曼/颠父人生][1080P-20.27G][MKV]DD5.1
    . y2 {, q8 u' k7 X0 g b.jpg " \5 B" d- }5 t8 b3 |" {
    ◎影片基本信息- ?- Q3 s/ O3 V
    大小: 20.27G
    ! ?- q0 v  e; t; k; f. s0 M- D0 m. L清晰度: 1080P
      h: {- R1 f" w7 R+ H4 ^, l5 B( S视频: MKV* K# u/ d" E7 c3 U' x# O- ~: a
    豆瓣评分: 7.70 D' W& T2 z' f" e1 E. Q
    导演: 玛伦·阿德
    3 U# Y. G: ]. ^编剧: 玛伦·阿德
      E) o/ K7 U1 u! ~. k: a主演: 彼得·西蒙尼舍克 / 桑德拉·惠勒 / 迈克尔·韦滕博恩 / 托马斯·洛伊布尔 / 特里斯坦·普特 / 哈德维奇·米尼斯 / 露西·拉塞尔 / 英格丽·比苏 / 弗拉德·伊凡诺夫 / 维多利亚·寇提亚斯 / 拉杜·班泽鲁 / 尼尔斯·伯曼 / 英格丽·伯克哈特! \! u( r$ w& @* b8 I
    类型: 剧情 / 喜剧; E% [, T% K4 [9 ?+ l3 g' X, ]
    制片国家/地区: 德国 / 奥地利* @' K" x( \/ @. h8 j0 ?
    语言: 德语 / 英语 / 罗马尼亚语
    % Z+ C/ K" L$ x6 J1 b上映日期: 2016-05-14(戛纳电影节) / 2016-07-14(德国) / 2016-08-17(法国)  i, @$ i& L; I$ e8 q) Z  u
    片长: 162分钟
    $ n/ {1 g# {2 a" A又名: 颠父人生(台)
    , n" C$ g; l! A' g) [0 D) y/ u影片: Toni.Erdmann.2016.GERMAN.1080p.BluRay.x264.DD5.1-EA

    3 O# _5 Q; J7 I5 J/ D* r◎剧情简介5 f( m  A. v% _/ h  r
           Inès在一家位于布加勒斯特的德国大型企业工作。她的生活一直井然有序,直到她的父亲Winfried突然造访,并向她提出了这个问题:“你幸福吗?”面对这个根本无法回答的问题,她的生活开始出现一系列翻天覆地的变化。她并不喜欢自己的父亲,甚至有点以他为耻,但他却通过捏造一个名叫Toni Erdmann的诙谐人物,试图为她的生活找到一个方向。& _( l/ `* w0 _/ y) a1 ~5 K0 j
    ' v' [3 }" g" {5 T
    -------------------------
    % C# U$ O& x5 F& z/ d, E  Y& }
    1. Video3 R/ Z9 }/ \. M. E9 X# f% g
    2. ID                                       : 1
      ) Y7 V; w$ v. q- f3 g% s
    3. Format                                   : AVC. D. ]" X- a8 X- L) o+ j! G
    4. Format/Info                              : Advanced Video Codec& A7 n; ~) F2 u# U! y/ B8 I& t
    5. Format profile                           : High@L4.1
      # l: V- W( [4 Z- _
    6. Format settings, CABAC                   : Yes
      * z% Z: g5 L* i8 _
    7. Format settings, ReFrames                : 4 frames
      ) ~* [' Q" A$ w$ G, d: B2 H/ S# ^  R
    8. Codec ID                                 : V_MPEG4/ISO/AVC
      - |0 {- {0 q. g1 P* S9 b' }
    9. Duration                                 : 2h 42mn
      5 a8 _" C7 g+ Y; W0 z2 H
    10. Bit rate                                 : 17.2 Mbps) u- E# [: b8 I  k  `! ^
    11. Width                                    : 1 920 pixels% t" W( Q/ M' F) D. ~
    12. Height                                   : 1 040 pixels
      3 `# ], [* I5 y
    13. Display aspect ratio                     : 1.85:1
      ' X( v2 e4 K# K2 S1 `$ \& _
    14. Frame rate mode                          : Constant7 d5 b: m" H# P2 R4 y; l  K  Y
    15. Frame rate                               : 24.000 fps
      " u- r$ ^0 S7 q% k
    16. Color space                              : YUV
      " {  y0 @) ?) I: L( V! N
    17. Chroma subsampling                       : 4:2:06 ]$ [; }5 K& V4 R$ o3 t
    18. Bit depth                                : 8 bits
      $ I) Y4 I% s, }; }
    19. Scan type                                : Progressive' X$ v, W- k7 P* l1 k) a
    20. Bits/(Pixel*Frame)                       : 0.3586 X/ h& m2 t% W- Q7 @
    21. Stream size                              : 19.4 GiB (96%)1 ?  p8 I- x7 Z4 P% w% y& K& s; R. U
    22. Title                                    : -EA
      9 B8 y3 I( v+ q" `- y
    23. Writing library                          : x264 core 148 r2744+55 950084e t_mod_Custom [8-bit@all X86_64]  a' r  B4 _) e& {0 D
    24. Encoding settings                        : cabac=1 / ref=4 / deblock=1:-3:-3 / analyse=0x3:0x113 / me=umh / subme=10 / psy=1 / fade_compensate=0.00 / psy_rd=1.04:0.00 / mixed_ref=1 / me_range=32 / chroma_me=1 / trellis=2 / 8x8dct=1 / cqm=0 / deadzone=21,11 / fast_pskip=0 / chroma_qp_offset=-2 / threads=24 / lookahead_threads=4 / sliced_threads=0 / nr=0 / decimate=0 / interlaced=0 / bluray_compat=0 / constrained_intra=0 / fgo=0 / bframes=7 / b_pyramid=2 / b_adapt=2 / b_bias=0 / direct=3 / weightb=1 / open_gop=0 / weightp=2 / keyint=240 / keyint_min=23 / scenecut=40 / intra_refresh=0 / rc_lookahead=60 / rc=crf / mbtree=0 / crf=18.0000 / qcomp=0.75 / qpmin=0:0:0 / qpmax=69:69:69 / qpstep=4 / vbv_maxrate=62500 / vbv_bufsize=78125 / crf_max=0.0 / nal_hrd=none / filler=0 / ip_ratio=1.30 / pb_ratio=1.20 / aq=3:0.80 / aq-sensitivity=10.00 / aq-factor=1.00:1.00:1.00 / aq2=1:0.70 / aq2-sensitivity=15.00 / aq2-factor=1.00:1.00:1.00 / aq3=1:[0.70:0.70]:[0.70:0.70]:[0.70:0.70]:[0.70:0.70] / aq3-sensitivity=10.00 / aq3-factor=[1.00:1.00]:[1.00:1.00]:[1.00:1.00] / aq3-boundary=192:64:24
      7 Q9 o( C3 c% u  p
    25. Language                                 : German! W) R" I$ u- M- n
    26. Default                                  : Yes
        e. j4 m- O$ p4 k" [
    27. Forced                                   : No7 F, v* @( u0 P4 [9 E# K
    28. Color range                              : Limited
      1 t1 s3 w5 m  y- f# f  i! u
    29. Color primaries                          : BT.709
      " r5 r2 j& ^8 B! f% l2 e+ a
    30. Transfer characteristics                 : BT.709
      2 @. [' ^1 E% V
    31. Matrix coefficients                      : BT.709
      ; t$ V/ a0 S: v0 S% B: o* M

    32. - r- r1 G4 c% D2 u
    33. Audio #1
      , {; z/ |3 L! S8 }1 W
    34. ID                                       : 29 x5 K* K, Z2 u6 M1 X$ G7 f
    35. Format                                   : AC-3
      4 }. I, Z7 H8 D* k8 F/ P
    36. Format/Info                              : Audio Coding 3
      * e- ^, }( H" k3 F# \: G8 D
    37. Mode extension                           : CM (complete main), d! a2 n3 u$ y" v
    38. Format settings, Endianness              : Big
        O' ?0 J3 [% {( t% c/ o: j8 C/ k
    39. Codec ID                                 : A_AC3
      + t: ^' q3 U8 N& F
    40. Duration                                 : 2h 42mn
      % c, L8 D/ H5 o- F. Y( ^
    41. Bit rate mode                            : Constant
      4 {( b2 b5 _) B* {; [7 c# j8 q
    42. Bit rate                                 : 640 Kbps
      " y* I- a/ c' l9 s
    43. Channel(s)                               : 6 channels
      " w4 z! `) P( y/ v( h4 a6 d5 a
    44. Channel positions                        : Front: L C R, Side: L R, LFE. u0 |+ J( K1 ^- X6 Q# u
    45. Sampling rate                            : 48.0 KHz
        D* L( Z- V6 f# E
    46. Frame rate                               : 31.250 fps (1536 spf)5 N& Q. n4 H6 D! c/ u$ L
    47. Compression mode                         : Lossy  E9 n/ ^2 d9 Y4 d, ^7 x
    48. Stream size                              : 743 MiB (4%): W! [9 `6 A, I5 `* U" G2 ]! }6 G6 }
    49. Language                                 : German
      * \# R% f  Z5 z' I
    50. Default                                  : Yes
      ) P# j0 x2 v) V& A: J
    51. Forced                                   : Yes' ~' J) `& }  }, d$ V
    52.   T+ v' I+ ~, B
    53. Audio #2
      8 Y. n7 a4 q+ P8 z2 n/ p, X
    54. ID                                       : 3
      - ], t) P, ^% k- N
    55. Format                                   : AAC; N  o# C" w7 f& ^) F7 t* `
    56. Format/Info                              : Advanced Audio Codec8 ^9 K: N9 L0 m- A/ }
    57. Format profile                           : HE-AAC / LC
      . n/ e- u* r. W! ^2 o" k+ s
    58. Codec ID                                 : A_AAC
      , }# V! A$ w& \$ ]/ H( _  ^
    59. Duration                                 : 2h 42mn' R% S4 {# h" R/ m9 O% L! F
    60. Bit rate                                 : 64.0 Kbps
      9 h0 Y" _; B; X* ]# a# H3 A
    61. Channel(s)                               : 2 channels
      7 E/ e1 X3 _; n3 ?( V/ z
    62. Channel positions                        : Front: L R
      6 G) z7 {  z- ?* H& }0 u. {
    63. Sampling rate                            : 48.0 KHz / 24.0 KHz
      8 r8 E0 V: {9 U! M  o
    64. Frame rate                               : 23.438 fps (1024 spf)
      , G6 ]/ ?8 J) C0 f: M1 ^/ E
    65. Compression mode                         : Lossy" H. Y2 p$ ~  G* S  z! U
    66. Delay relative to video                  : 31ms
      # T. F% k2 v  T( o1 c
    67. Stream size                              : 74.3 MiB (0%)9 b9 O. h4 O) A5 w) K
    68. Title                                    : Commentary with M. Ade, S. Hüller, P. Simonischek
      . G  s% b. B4 B) o, C) e
    69. Language                                 : German3 m& F/ `1 w. ~
    70. Default                                  : No% s6 Y% _5 Z, {6 o; D1 I
    71. Forced                                   : No- t+ _7 v3 w8 c! S4 ~: i
    72. ' |5 m  n( F5 x# h8 k/ J. C
    73. Text #1
      ! C0 L- p: q$ L% n+ u4 B8 A+ A" _
    74. ID                                       : 4
      & I& X0 C4 s! s8 p) v- D6 g
    75. Format                                   : UTF-8
      ! n" ^( R& e8 ~! [, F
    76. Codec ID                                 : S_TEXT/UTF8: k1 M2 @0 E" m+ i( H- S: G" ~8 X
    77. Codec ID/Info                            : UTF-8 Plain Text0 o& R' [; Y4 W3 F8 S7 F1 L
    78. Duration                                 : 2h 40mn
      8 B7 V# [5 t) u& s
    79. Bit rate                                 : 22 bps
      . q/ i' ?6 M( ^' A
    80. Count of elements                        : 8697 C  F* {7 B3 A, I* T
    81. Stream size                              : 26.6 KiB (0%)  X  s! W( e5 F4 j0 N3 ]
    82. Title                                    : srt( R" ~5 y+ A+ y2 {; e; Y
    83. Language                                 : English  G3 ]- @% P. L* ], L
    84. Default                                  : Yes
      5 I1 b9 ]7 e0 q( U; I9 H+ g) N
    85. Forced                                   : Yes1 j, X1 i) P6 \% N
    86. 9 O5 O4 Z2 S: F6 A
    87. Text #2
      1 M6 o: r. h# m. {) }0 g( {1 k8 {
    88. ID                                       : 5
      6 _2 l. c! Q" k4 Z! Q
    89. Format                                   : PGS# b1 u: @$ f  k$ f, F) U1 B
    90. Muxing mode                              : zlib
      ! M7 t: o2 l& t0 V
    91. Codec ID                                 : S_HDMV/PGS5 E+ U* K) q5 b% e0 {
    92. Codec ID/Info                            : Picture based subtitle format used on BDs/HD-DVDs
      ; r7 N& @7 W  b0 V, B" P" O8 Y# Q
    93. Duration                                 : 2h 23mn* x7 c, b1 d2 V8 L, h6 X
    94. Bit rate                                 : 6 306 bps8 a; W; N' p- R
    95. Count of elements                        : 1024: a2 g2 m5 o5 c+ h0 r
    96. Stream size                              : 6.47 MiB (0%)8 L$ F2 J+ _) b6 N3 I: u
    97. Title                                    : sup
        ]- v+ q( C( P6 W5 ~$ D) v5 x1 X
    98. Language                                 : German
      1 j! ~6 W' C' X5 ]7 }  {% Q
    99. Default                                  : No4 y' }  R1 p% J& W3 L0 j
    100. Forced                                   : No. ]+ }  f% L. {' c0 B3 M
    101. & b+ T7 P  Y' x4 A* ~0 U/ m
    102. Text #3; T9 u( a  |) b& {) D% o, T
    103. ID                                       : 6
      : I% _' d! l% ~8 J4 U* \
    104. Format                                   : PGS$ e( o$ Q7 c9 P5 m2 |2 u7 h8 p
    105. Muxing mode                              : zlib
      7 G$ e% L5 ~- r9 `
    106. Codec ID                                 : S_HDMV/PGS6 `0 @# v1 i3 s0 {; z( V: z4 e+ f
    107. Codec ID/Info                            : Picture based subtitle format used on BDs/HD-DVDs5 b" m$ O  i4 ^( s
    108. Duration                                 : 2h 41mn
      0 u+ m6 y, C! D+ y* D& l
    109. Bit rate                                 : 19.9 Kbps
      5 b0 q2 l4 c" V3 G5 Q6 o3 L2 s
    110. Count of elements                        : 3626
      # G( ]" s1 B4 j1 i6 p
    111. Stream size                              : 23.0 MiB (0%)
      6 u% c/ f9 i7 V% s2 \% M% L! C: S
    112. Title                                    : sup HoH
      . q+ p& B! k# }8 E' e$ Y, H' q6 N
    113. Language                                 : German. ]6 b3 W5 v0 c8 I9 |1 u1 D0 O
    114. Default                                  : No5 m0 `' f0 P" V2 p
    115. Forced                                   : No) g* ]4 J2 m/ C

    116. , q* r! u9 n3 @/ k8 m' |; F
    117. Menu #16 h) Y1 \' n' `% _! v7 Z( k
    118. 00:00:00.000                             : en:00:00:00.000
      ) t8 L0 x( v& T2 V% J/ P
    119. 00:09:06.625                             : en:00:09:06.625
      5 X5 `, T( Y' T' i9 @
    120. 00:18:02.917                             : en:00:18:02.917
        B4 j" J: Z8 d+ L
    121. 00:36:33.833                             : en:00:36:33.833
      $ L6 @: u* B7 d" o- X/ Q
    122. 00:52:43.833                             : en:00:52:43.833
      8 ~' i4 Y  g+ E* P7 c
    123. 01:11:32.167                             : en:01:11:32.167
      : p1 l% b/ Z5 ^' {2 J( t6 Z7 e
    124. 01:36:39.917                             : en:01:36:39.917- Q0 T9 A- b& g9 D9 {! i0 y
    125. 02:06:09.958                             : en:02:06:09.9588 _3 W1 L5 ]; w7 A* g! W# Z
    126. 02:27:28.958                             : en:02:27:28.958
      . H" p/ q$ t8 E6 C' r( ^% n! x
    127. & Z$ {8 A) n; }5 I9 h; [  I
    128. Menu #2- A8 d( T+ s" d3 c' }8 `% Y; K8 h
    129. 00:00:00.097                             : en:00:00:00.097
      , c7 G% p1 L/ f8 m
    复制代码

    ) i7 B$ B7 w' u4 `6 j-------------------------
    ! h, c' ^+ f1 W' ?& \7 M◎精彩剧照% z- @9 l+ i/ P! A) w) g) N. K

    4 r3 _# c5 v# v8 J, ^9 X7 H-------------------------0 T1 K* O& ~: z/ h4 a  {
    [以上高清电影剧照来自互联网,不代表此片高清剧照]
    # q  ^6 C/ i/ N# i郑重声明:本站提供的所有高清电影作品均是在网上搜集,任何涉及商业盈利目的均不得使用,否则产生的一切后果将由您自己承担!本站将不对本站的任何内容负任何法律责任!该下载内容仅做宽带测试使用,请在下载后24小时内删除。请购买正
    版!: L+ I4 Q3 E: a7 s0 U) g% p
    -------------------------
    % A/ _1 R' o2 A◎种子下载地址8 P0 A- d7 O/ r! j+ ]5 x% g
    游客,如果您要查看本帖隐藏内容请回复

    + s. J; ]- [6 x' q- X) X5 x9 z4 U  g- j2 {& _1 n
    回复

    使用道具 举报

  • TA的每日心情
    慵懒
    2017-1-6 08:33
  • 签到天数: 8 天

    连续签到: 4 天

    [LV.3]偶尔看看II

    发表于 2017-1-4 10:04:24 | 显示全部楼层
    谢谢谢谢
    . {: I% v' Q* W8 j, t7 |谢谢谢谢0 h0 k1 k1 s$ ~
    谢谢谢谢. {6 ^1 Z$ u; a& \7 e' h
    回复 支持 反对

    使用道具 举报

  • TA的每日心情
    开心
    前天 20:56
  • 签到天数: 37 天

    连续签到: 1 天

    [LV.5]常住居民I

    发表于 2017-1-4 10:23:28 | 显示全部楼层
    多谢分享,人生平淡
    . t8 |/ q4 F4 l0 ?, c9 l. u
    [发帖际遇]: imis041 发帖时在路边捡到 3 蓝光币,偷偷放进了口袋. 幸运榜 / 衰神榜
    回复 支持 反对

    使用道具 举报

  • TA的每日心情
    奋斗
    7 天前
  • 签到天数: 61 天

    连续签到: 1 天

    [LV.6]常住居民II

    发表于 2017-1-4 10:28:03 | 显示全部楼层
    从简介上非常让我感兴趣 谢谢楼主
    ' ?! J, O# ~4 E$ A% a1 `' s$ x9 H, P# ^( L' x& Z$ W
    [发帖际遇]: freehytoo 乐于助人,奖励 2 蓝光币. 幸运榜 / 衰神榜
    回复 支持 反对

    使用道具 举报

  • TA的每日心情
    无聊
    2017-1-4 09:51
  • 签到天数: 1 天

    连续签到: 1 天

    [LV.1]初来乍到

    发表于 2017-1-4 10:29:05 | 显示全部楼层
    多谢分享,人生平淡" G# b
    回复 支持 反对

    使用道具 举报

  • TA的每日心情
    无聊
    2017-1-4 09:51
  • 签到天数: 1 天

    连续签到: 1 天

    [LV.1]初来乍到

    发表于 2017-1-4 10:35:13 | 显示全部楼层

      E% ?8 Q7 E0 t2 h下载来看看,感觉还可以
    [发帖际遇]: zjiewang 乐于助人,奖励 3 蓝光币. 幸运榜 / 衰神榜
    回复 支持 反对

    使用道具 举报

  • TA的每日心情
    擦汗
    5 天前
  • 签到天数: 258 天

    连续签到: 1 天

    [LV.8]以坛为家I

    发表于 2017-1-4 11:03:23 | 显示全部楼层
    感谢楼主分享。
    5 }6 {% c" d! I
    回复 支持 反对

    使用道具 举报

  • TA的每日心情
    开心
    2017-7-13 21:56
  • 签到天数: 174 天

    连续签到: 1 天

    [LV.7]常住居民III

    发表于 2017-1-4 11:26:59 | 显示全部楼层
    感谢楼主分享7 w, F' a2 T( W  V( H, E) X
    回复 支持 反对

    使用道具 举报

  • TA的每日心情
    无聊
    昨天 17:04
  • 签到天数: 93 天

    连续签到: 1 天

    [LV.6]常住居民II

    发表于 2017-1-4 11:40:35 | 显示全部楼层
    感谢楼主分享!!!
    回复 支持 反对

    使用道具 举报

    您需要登录后才可以回帖 登录 | 立即加入

    本版积分规则

    您尚未登录,请登陆后浏览更精彩内容!
     立即加入
    找回密码

    QQ| 客服QQ:15608182|如有侵权内容请联系:www1080net#qq.com 我们会及时删除|Archiver|手机版| 蓝光论坛  

    返回顶部
    x

    关注微信 不迷路

    Copyright © 2001-2013 Comsenz Inc.  Template by 蓝光电影论坛 All Rights Reserved.

    Powered by Discuz! X3.2( ICP备11019663号-4 )

    快速回复 返回顶部 返回列表