找回密码

蓝光电影论坛

查看: 3441|回复: 195

[喜剧] [2016][德国][喜剧][托尼·厄德曼/颠父人生][1080P-20.27G][MKV]DD5.1

  [复制链接]
  • TA的每日心情
    无聊
    2015-10-16 08:48
  • 签到天数: 5 天

    连续签到: 1 天

    [LV.2]偶尔看看I

     成长值: 10810

    发表于 2017-1-4 09:58:28 | 显示全部楼层 |阅读模式

    马上注册,获取最新影视资讯,享用更多功能,让你轻松玩转高清论坛。

    您需要 登录 才可以下载或查看,没有帐号?立即加入

    x
    [2016][德国][喜剧][托尼·厄德曼/颠父人生][1080P-20.27G][MKV]DD5.12 z. h+ N' a" _
    b.jpg ; f# R4 \1 t& A; w: S
    ◎影片基本信息
    $ r3 m9 M- Z( K! T$ }大小: 20.27G. x$ |9 d3 x, R' A$ }! D* a6 A' U
    清晰度: 1080P5 \" X- Q, S- F/ U+ J! v
    视频: MKV
    * g# ^& Z. k/ w' ?2 \/ _  Q/ K9 \豆瓣评分: 7.7
    5 h# ]0 u4 i, P8 m. k/ {导演: 玛伦·阿德' N8 [) |: H) V% ?! r& h
    编剧: 玛伦·阿德
    5 G1 @1 J: G  J+ [) e- g主演: 彼得·西蒙尼舍克 / 桑德拉·惠勒 / 迈克尔·韦滕博恩 / 托马斯·洛伊布尔 / 特里斯坦·普特 / 哈德维奇·米尼斯 / 露西·拉塞尔 / 英格丽·比苏 / 弗拉德·伊凡诺夫 / 维多利亚·寇提亚斯 / 拉杜·班泽鲁 / 尼尔斯·伯曼 / 英格丽·伯克哈特
    3 p# q0 b& s: o; a5 N9 t类型: 剧情 / 喜剧/ C" c2 |: `# m: i
    制片国家/地区: 德国 / 奥地利* {5 G3 D# C" S# C
    语言: 德语 / 英语 / 罗马尼亚语% y' H! h; T/ ]4 g# r* F2 a' \
    上映日期: 2016-05-14(戛纳电影节) / 2016-07-14(德国) / 2016-08-17(法国)
    4 }0 x. ~! C. g0 b. |0 x% B5 I片长: 162分钟1 N: D# I0 E' g, M
    又名: 颠父人生(台)
    # m( J4 Q1 v, ?' y; J- k* s影片: Toni.Erdmann.2016.GERMAN.1080p.BluRay.x264.DD5.1-EA

      X: z7 s6 p! J0 X' ~◎剧情简介
    * D  X4 T5 H/ _' |3 E3 Y9 O- r       Inès在一家位于布加勒斯特的德国大型企业工作。她的生活一直井然有序,直到她的父亲Winfried突然造访,并向她提出了这个问题:“你幸福吗?”面对这个根本无法回答的问题,她的生活开始出现一系列翻天覆地的变化。她并不喜欢自己的父亲,甚至有点以他为耻,但他却通过捏造一个名叫Toni Erdmann的诙谐人物,试图为她的生活找到一个方向。/ b' ?) n! k' x* B" D3 S" N

    : n8 i# g1 i2 O* u6 \% M+ ^-------------------------9 R/ j  i8 B4 u
    1. Video
      , w7 c' |6 H& m3 C+ M, \
    2. ID                                       : 1  }3 e6 |; S/ V/ g( z3 }5 w# W0 E
    3. Format                                   : AVC
      " p" l2 ?7 ~* L  w5 o
    4. Format/Info                              : Advanced Video Codec& B* N$ U+ D+ |2 l: i# ?
    5. Format profile                           : High@L4.1. m! Y1 k: r- U9 T# }9 k& D
    6. Format settings, CABAC                   : Yes
      ! N( g' R# H  z6 x( }0 _  `$ J
    7. Format settings, ReFrames                : 4 frames
      9 ^* I0 D. P  N( ?
    8. Codec ID                                 : V_MPEG4/ISO/AVC
      8 Z" h& I# T' S3 A* g. e
    9. Duration                                 : 2h 42mn- i: F3 \2 B6 ?* o
    10. Bit rate                                 : 17.2 Mbps
      " \  Q. i0 m1 d
    11. Width                                    : 1 920 pixels
      : q6 A( l4 @3 K0 n
    12. Height                                   : 1 040 pixels: c7 E& f2 ?" d
    13. Display aspect ratio                     : 1.85:13 o. R$ |/ q$ ~6 I9 K
    14. Frame rate mode                          : Constant
      $ b4 k$ J& F, w
    15. Frame rate                               : 24.000 fps8 u% _8 j; ]- E/ t8 m! H3 v
    16. Color space                              : YUV2 T2 G+ n- C/ I6 ?% N
    17. Chroma subsampling                       : 4:2:05 k: p# @  e4 ?
    18. Bit depth                                : 8 bits5 e+ e2 x6 D' b/ d* \0 u
    19. Scan type                                : Progressive4 e$ r! X, y2 m+ T, A" k
    20. Bits/(Pixel*Frame)                       : 0.358; g- I( q' L1 O% o" E0 \
    21. Stream size                              : 19.4 GiB (96%)
      2 M" o1 `1 p9 Z9 s0 [0 o0 h7 v2 W2 W
    22. Title                                    : -EA3 k  }. P/ p2 a1 z
    23. Writing library                          : x264 core 148 r2744+55 950084e t_mod_Custom [8-bit@all X86_64]' X# j; o# O% P# m
    24. Encoding settings                        : cabac=1 / ref=4 / deblock=1:-3:-3 / analyse=0x3:0x113 / me=umh / subme=10 / psy=1 / fade_compensate=0.00 / psy_rd=1.04:0.00 / mixed_ref=1 / me_range=32 / chroma_me=1 / trellis=2 / 8x8dct=1 / cqm=0 / deadzone=21,11 / fast_pskip=0 / chroma_qp_offset=-2 / threads=24 / lookahead_threads=4 / sliced_threads=0 / nr=0 / decimate=0 / interlaced=0 / bluray_compat=0 / constrained_intra=0 / fgo=0 / bframes=7 / b_pyramid=2 / b_adapt=2 / b_bias=0 / direct=3 / weightb=1 / open_gop=0 / weightp=2 / keyint=240 / keyint_min=23 / scenecut=40 / intra_refresh=0 / rc_lookahead=60 / rc=crf / mbtree=0 / crf=18.0000 / qcomp=0.75 / qpmin=0:0:0 / qpmax=69:69:69 / qpstep=4 / vbv_maxrate=62500 / vbv_bufsize=78125 / crf_max=0.0 / nal_hrd=none / filler=0 / ip_ratio=1.30 / pb_ratio=1.20 / aq=3:0.80 / aq-sensitivity=10.00 / aq-factor=1.00:1.00:1.00 / aq2=1:0.70 / aq2-sensitivity=15.00 / aq2-factor=1.00:1.00:1.00 / aq3=1:[0.70:0.70]:[0.70:0.70]:[0.70:0.70]:[0.70:0.70] / aq3-sensitivity=10.00 / aq3-factor=[1.00:1.00]:[1.00:1.00]:[1.00:1.00] / aq3-boundary=192:64:24
      ' c& `; Y6 a. I9 u+ v& r5 o" k* `
    25. Language                                 : German
      9 {. X* D; i! ~) H
    26. Default                                  : Yes
      " m8 {* X, V9 O! q
    27. Forced                                   : No7 U6 \9 a/ @( V3 e1 a5 c
    28. Color range                              : Limited" t4 [6 M7 e: G& {/ o
    29. Color primaries                          : BT.709
      # j4 o; O9 D( d- B- e/ n6 C+ n! k% v
    30. Transfer characteristics                 : BT.709
      1 D1 l# u8 f# e1 S* G1 l
    31. Matrix coefficients                      : BT.709
      & R8 C2 b+ r$ i9 M

    32. & q) z; {! c7 K% N# k4 f
    33. Audio #18 G# p" E) J4 W+ j" o3 M3 j! G
    34. ID                                       : 2
      & N' A5 A( f4 J8 w( S) |
    35. Format                                   : AC-38 J1 L! t4 `" O; {
    36. Format/Info                              : Audio Coding 3
      : ]6 _8 L' ]  O: M6 @( T$ h
    37. Mode extension                           : CM (complete main)
      + _- o* F2 W5 H* t  Q2 ?% Q
    38. Format settings, Endianness              : Big0 j9 f8 d) y0 r, m' R" C6 E& S# D
    39. Codec ID                                 : A_AC3. a( ?8 ?; G2 e6 A2 Y
    40. Duration                                 : 2h 42mn# }: Q: q1 p% X9 X! `  U+ t
    41. Bit rate mode                            : Constant9 z& C% _. j3 J" M# D" W% ~. {- @
    42. Bit rate                                 : 640 Kbps) k+ S; Q3 U8 Y; {
    43. Channel(s)                               : 6 channels+ @$ x6 N, k' [
    44. Channel positions                        : Front: L C R, Side: L R, LFE
      . L! M& \; A- R# t( y* B0 d
    45. Sampling rate                            : 48.0 KHz
      ( u9 V: m! `* W, ]: A! M
    46. Frame rate                               : 31.250 fps (1536 spf); w4 X, y# o+ o, ^$ `( Y" T0 j
    47. Compression mode                         : Lossy  f. N, i1 E  w8 \+ ~8 ^# \( f
    48. Stream size                              : 743 MiB (4%)/ Z( b1 D' Q  j7 u/ ?- h
    49. Language                                 : German# P1 B  R7 E* _+ w+ ]9 v5 P% A! v$ K$ R; X
    50. Default                                  : Yes
      " j) |4 W: [7 E5 R/ e$ O% A  A
    51. Forced                                   : Yes
      6 W6 g4 Q9 `$ Y+ y$ U

    52. % l- Q- }; Q4 b6 H) k8 _( Q
    53. Audio #2: S6 b! u5 d* S3 M2 o3 _9 D3 S+ b2 w
    54. ID                                       : 3
      % L: g1 A; J) o$ L3 \
    55. Format                                   : AAC% }6 T! c( G# ?0 d- \. i
    56. Format/Info                              : Advanced Audio Codec& }  W, H1 K( {8 O* N/ J# j
    57. Format profile                           : HE-AAC / LC5 N# ~6 X" I" G1 V# Q$ f4 R4 l
    58. Codec ID                                 : A_AAC
      : L) w% V; }( s4 R
    59. Duration                                 : 2h 42mn8 Y! Q' w8 N/ I; I7 f& L4 [' D1 t
    60. Bit rate                                 : 64.0 Kbps
        _% Z, B# d# B
    61. Channel(s)                               : 2 channels' Y4 e+ ]/ H" Z, P9 r1 d' j
    62. Channel positions                        : Front: L R
      9 ?0 ^; g7 K% h  J& J. z6 Z7 m( W
    63. Sampling rate                            : 48.0 KHz / 24.0 KHz
      ) F- i0 E. T  b
    64. Frame rate                               : 23.438 fps (1024 spf)
      6 K2 Q* k+ v4 a2 X! f# a5 X% C1 f
    65. Compression mode                         : Lossy* B$ Q) @( L$ l7 p, y) E
    66. Delay relative to video                  : 31ms1 ^9 l4 F& z. f5 J+ X
    67. Stream size                              : 74.3 MiB (0%)8 {7 {& {) N# F- I
    68. Title                                    : Commentary with M. Ade, S. Hüller, P. Simonischek; R5 L% _1 q" J# p
    69. Language                                 : German
      6 d) M/ i' M8 _$ [4 f4 n
    70. Default                                  : No
      ; P, v& F; P# V9 ^4 V' F
    71. Forced                                   : No
      6 U1 L4 O' A5 R! Q, n7 k7 k
    72. 9 D  P/ i* D4 n% p8 O' U! D3 c
    73. Text #1
      6 B/ w" ]& N' U& K* w) l+ a3 M1 S! V
    74. ID                                       : 4
      ' }$ f/ @! ]8 N
    75. Format                                   : UTF-83 `8 s3 G  a# ~' t5 z" F7 X9 W( ~( {) d
    76. Codec ID                                 : S_TEXT/UTF8
      ' M- V6 X/ v3 V8 T
    77. Codec ID/Info                            : UTF-8 Plain Text! \+ g. e4 M8 ?6 l
    78. Duration                                 : 2h 40mn2 R1 e1 f0 J9 g( p8 X" T$ q) }" t
    79. Bit rate                                 : 22 bps
      0 d& k: r& x3 i9 c$ @2 Y, U
    80. Count of elements                        : 8696 D7 Q* c6 Z" d& B9 O3 ~
    81. Stream size                              : 26.6 KiB (0%)$ y* P1 c- F$ f- J
    82. Title                                    : srt
      4 I- a- n: }2 e: ~# s
    83. Language                                 : English
      * [6 \; C! ?, J. L# p! {) U
    84. Default                                  : Yes. H5 C% h7 g, V- O
    85. Forced                                   : Yes
      4 B, I" @2 H% a/ V+ S! W

    86. 0 k: }/ l+ V+ h9 U5 @# x
    87. Text #23 H% _; S* p/ q
    88. ID                                       : 5
      9 T$ C. {& u8 D- E7 a
    89. Format                                   : PGS
      5 `6 ^* J: g- g4 G! l
    90. Muxing mode                              : zlib
      ! H% L. g8 T, X
    91. Codec ID                                 : S_HDMV/PGS
      % M$ ]; m- J/ x4 _4 s
    92. Codec ID/Info                            : Picture based subtitle format used on BDs/HD-DVDs7 P7 o  K5 u% x4 T' \
    93. Duration                                 : 2h 23mn
      6 K; [9 L1 K5 c1 y  s8 V" C
    94. Bit rate                                 : 6 306 bps
      1 B" `0 k9 i1 m+ y( e
    95. Count of elements                        : 1024
      2 M0 C- F, v6 P4 ]0 N  ^
    96. Stream size                              : 6.47 MiB (0%)$ K: M2 |. k; x
    97. Title                                    : sup  r. o. U  J4 J' c( }# ^
    98. Language                                 : German- I2 A" f& P# n& Y6 _
    99. Default                                  : No
      3 ]" i, e/ k" W6 F
    100. Forced                                   : No
      6 w! ]1 g/ E; ?) T5 Z! N4 i
    101. * ^# {1 j, x2 u
    102. Text #3+ v9 C( S3 U! a+ A4 H
    103. ID                                       : 65 @: \* W* m. _) k8 s3 L
    104. Format                                   : PGS
      " Q  k# _# _% o% h) z; `
    105. Muxing mode                              : zlib/ u0 p8 J4 s5 u, |: Y: ^7 S
    106. Codec ID                                 : S_HDMV/PGS
      - T% g" N' s6 a& n4 R+ p8 N  f% _
    107. Codec ID/Info                            : Picture based subtitle format used on BDs/HD-DVDs
      $ P$ D+ `5 T& w! G
    108. Duration                                 : 2h 41mn
      5 W# B  Q' ~# u/ W5 j# n
    109. Bit rate                                 : 19.9 Kbps
      8 d5 z/ b# x7 v5 q
    110. Count of elements                        : 3626
        z7 R) m. K  L1 |' N. ?! S
    111. Stream size                              : 23.0 MiB (0%)
      3 X  S$ D) w5 X( Q# Y
    112. Title                                    : sup HoH) S" P- O2 o$ W  E  l" J+ M, n- G
    113. Language                                 : German9 c( [8 j0 y( O: }6 X* X' H
    114. Default                                  : No: N+ ^( v: ?+ t6 m9 ~, U
    115. Forced                                   : No# z' A$ E  n0 V1 M+ p: y+ H- u

    116. 3 ~8 L4 a7 |2 ~# J% z7 w0 O1 {
    117. Menu #11 J& \3 w$ T/ Q
    118. 00:00:00.000                             : en:00:00:00.000% V6 P; V) N) \. o5 a% l! |
    119. 00:09:06.625                             : en:00:09:06.625" i5 \9 E) h% A7 j* f6 ]9 E
    120. 00:18:02.917                             : en:00:18:02.917
      / D( _7 T" R4 y- v3 Y& X; k3 k1 t/ o
    121. 00:36:33.833                             : en:00:36:33.8332 f8 P& r# s; n0 W8 T/ s8 @- C/ |7 x
    122. 00:52:43.833                             : en:00:52:43.833
      ; p; B9 Q$ f! [7 g8 A1 Y' r) e6 H
    123. 01:11:32.167                             : en:01:11:32.167$ y1 K# J+ B, e% H* F& Q& y& C; `
    124. 01:36:39.917                             : en:01:36:39.9176 x+ p8 B+ V# A
    125. 02:06:09.958                             : en:02:06:09.958
      * W. r; e/ `) H! Z' u1 a
    126. 02:27:28.958                             : en:02:27:28.958* b$ q+ W2 F+ o( j9 |

    127. 5 @  }  H; B, n  b# Q
    128. Menu #2; r+ S/ E) x7 h* g" D# o
    129. 00:00:00.097                             : en:00:00:00.097
      $ B; S9 f$ C7 N7 z6 g8 r
    复制代码

    + a! u# b3 P5 t2 H-------------------------
    9 |) W1 D) z. w" _. p# z" }◎精彩剧照& ^- P0 v7 r9 M) U7 x' R, d3 f( b

    6 c" l. x! F+ z/ E1 C: r! D7 m/ `-------------------------
    5 b, j; D. D, C8 J/ Q5 \9 f, ][以上高清电影剧照来自互联网,不代表此片高清剧照]
    $ I3 I5 P  E5 f3 M郑重声明:本站提供的所有高清电影作品均是在网上搜集,任何涉及商业盈利目的均不得使用,否则产生的一切后果将由您自己承担!本站将不对本站的任何内容负任何法律责任!该下载内容仅做宽带测试使用,请在下载后24小时内删除。请购买正
    版!4 ?$ \. F, J- J3 E
    -------------------------: k; B4 K/ K; k; ^% u+ q- V
    ◎种子下载地址
    4 g$ o3 \) [* B9 e/ |9 J
    游客,如果您要查看本帖隐藏内容请回复

    . u& @3 Q* D  s! M" }. S% x# T' n' J0 @& @8 |
    回复

    使用道具 举报

  • TA的每日心情
    慵懒
    2017-8-7 11:48
  • 签到天数: 11 天

    连续签到: 1 天

    [LV.3]偶尔看看II

    发表于 2017-1-4 10:04:24 | 显示全部楼层
    谢谢谢谢/ _* P+ k, z3 ~$ M
    谢谢谢谢* M3 J+ T+ c' _  f# d+ P1 @
    谢谢谢谢
    4 z. M( _6 f0 _8 z
    回复 支持 反对

    使用道具 举报

  • TA的每日心情
    开心
    7 天前
  • 签到天数: 51 天

    连续签到: 1 天

    [LV.5]常住居民I

    发表于 2017-1-4 10:23:28 | 显示全部楼层
    多谢分享,人生平淡
    & p8 H* L' Y) R# v
    [发帖际遇]: imis041 发帖时在路边捡到 3 蓝光币,偷偷放进了口袋. 幸运榜 / 衰神榜
    回复 支持 反对

    使用道具 举报

  • TA的每日心情
    奋斗
    昨天 17:01
  • 签到天数: 65 天

    连续签到: 1 天

    [LV.6]常住居民II

    发表于 2017-1-4 10:28:03 | 显示全部楼层
    从简介上非常让我感兴趣 谢谢楼主
    + @! G6 D! n8 k& C) n0 e% g+ o$ e! r
    [发帖际遇]: freehytoo 乐于助人,奖励 2 蓝光币. 幸运榜 / 衰神榜
    回复 支持 反对

    使用道具 举报

  • TA的每日心情
    无聊
    2017-1-4 09:51
  • 签到天数: 1 天

    连续签到: 1 天

    [LV.1]初来乍到

    发表于 2017-1-4 10:29:05 | 显示全部楼层
    多谢分享,人生平淡" G# b
    回复 支持 反对

    使用道具 举报

  • TA的每日心情
    无聊
    2017-1-4 09:51
  • 签到天数: 1 天

    连续签到: 1 天

    [LV.1]初来乍到

    发表于 2017-1-4 10:35:13 | 显示全部楼层
    ! r& K2 J7 y/ B, g( k' P
    下载来看看,感觉还可以
    [发帖际遇]: zjiewang 乐于助人,奖励 3 蓝光币. 幸运榜 / 衰神榜
    回复 支持 反对

    使用道具 举报

  • TA的每日心情
    奋斗
    昨天 16:42
  • 签到天数: 285 天

    连续签到: 1 天

    [LV.8]以坛为家I

    发表于 2017-1-4 11:03:23 | 显示全部楼层
    感谢楼主分享。0 O7 n$ |, O, j' L: D% d! p
    回复 支持 反对

    使用道具 举报

  • TA的每日心情
    开心
    昨天 20:44
  • 签到天数: 185 天

    连续签到: 2 天

    [LV.7]常住居民III

    发表于 2017-1-4 11:26:59 | 显示全部楼层
    感谢楼主分享
    / w; _! E7 F" D" _: M) d1 g
    回复 支持 反对

    使用道具 举报

  • TA的每日心情
    奋斗
    2017-9-8 19:29
  • 签到天数: 108 天

    连续签到: 1 天

    [LV.6]常住居民II

    发表于 2017-1-4 11:40:35 | 显示全部楼层
    感谢楼主分享!!!
    回复 支持 反对

    使用道具 举报

    您需要登录后才可以回帖 登录 | 立即加入

    本版积分规则

    您尚未登录,请登陆后浏览更精彩内容!
     立即加入
    找回密码

    QQ| QQ:15608182(不一定在线,留言看到会处理,勿催)|如有侵权内容请联系:www1080net#qq.com 会及时删除|Archiver|手机版| 蓝光论坛  

    返回顶部
    x

    关注微信 不迷路

    Copyright © 2001-2013 Comsenz Inc.  Template by 蓝光电影论坛 All Rights Reserved.

    Powered by Discuz! X3.2( ICP备11019663号-4 )

    快速回复 返回顶部 返回列表