找回密码

蓝光电影论坛

查看: 2402|回复: 173

[喜剧] [2016][德国][喜剧][托尼·厄德曼/颠父人生][1080P-20.27G][MKV]DD5.1

  [复制链接]
  • TA的每日心情
    无聊
    2015-10-16 08:48
  • 签到天数: 5 天

    连续签到: 1 天

    [LV.2]偶尔看看I

     成长值: 7135

    发表于 2017-1-4 09:58:28 | 显示全部楼层 |阅读模式

    马上注册,获取最新影视资讯,享用更多功能,让你轻松玩转高清论坛。

    您需要 登录 才可以下载或查看,没有帐号?立即加入

    x
    [2016][德国][喜剧][托尼·厄德曼/颠父人生][1080P-20.27G][MKV]DD5.16 P) L" r& i, h! q7 y! S  M
    b.jpg . C: v# L" z6 q# j5 g/ l: L
    ◎影片基本信息  v8 Y1 d( V2 G; U  R4 T
    大小: 20.27G6 v7 h: u& E/ I1 l/ x
    清晰度: 1080P
    1 _; T0 _8 Z6 k! ]4 O8 L6 G+ x6 v视频: MKV
    : ~8 B: r. I: `& @) ~/ x7 w. W豆瓣评分: 7.7& v5 A7 F% l  ^) ]/ e
    导演: 玛伦·阿德4 l, X7 [9 s' @* l! X
    编剧: 玛伦·阿德
      }3 A) W- j) d: @7 o8 L: k主演: 彼得·西蒙尼舍克 / 桑德拉·惠勒 / 迈克尔·韦滕博恩 / 托马斯·洛伊布尔 / 特里斯坦·普特 / 哈德维奇·米尼斯 / 露西·拉塞尔 / 英格丽·比苏 / 弗拉德·伊凡诺夫 / 维多利亚·寇提亚斯 / 拉杜·班泽鲁 / 尼尔斯·伯曼 / 英格丽·伯克哈特
    " q  |- V: o( ?$ e; ?- H类型: 剧情 / 喜剧7 u0 ?( n* {: f% b. ?. Z
    制片国家/地区: 德国 / 奥地利/ ^# _# R- I/ j
    语言: 德语 / 英语 / 罗马尼亚语
    & O& H) r' O) B4 _上映日期: 2016-05-14(戛纳电影节) / 2016-07-14(德国) / 2016-08-17(法国)
    : a5 {& v" s. M: Y/ {  m片长: 162分钟* R2 I3 L5 @% N* p2 I+ h
    又名: 颠父人生(台)- c# g: g8 y! c" T! C3 H& \
    影片: Toni.Erdmann.2016.GERMAN.1080p.BluRay.x264.DD5.1-EA
    ! s' @2 t; H- T, Y, R- U' R1 i# t" W
    ◎剧情简介- d' f7 i! M( v1 H( c* \
           Inès在一家位于布加勒斯特的德国大型企业工作。她的生活一直井然有序,直到她的父亲Winfried突然造访,并向她提出了这个问题:“你幸福吗?”面对这个根本无法回答的问题,她的生活开始出现一系列翻天覆地的变化。她并不喜欢自己的父亲,甚至有点以他为耻,但他却通过捏造一个名叫Toni Erdmann的诙谐人物,试图为她的生活找到一个方向。
    $ U9 Q( a4 d1 t# s( m# H
    4 S9 O( g7 n$ a8 U1 i" a-------------------------' D: n+ B) V3 G8 E4 y7 g
    1. Video* m5 A4 J1 D6 U
    2. ID                                       : 1- C" K! M3 K$ R( j! z
    3. Format                                   : AVC
      ) M. P7 r$ P# p& J
    4. Format/Info                              : Advanced Video Codec: @* ]* Z6 R  h$ ?0 M
    5. Format profile                           : High@L4.1
      $ l8 z- l7 p, e& ~* i2 G  B# l& s. t
    6. Format settings, CABAC                   : Yes, w" D7 _2 k0 z& y, p
    7. Format settings, ReFrames                : 4 frames
      * M3 V) d7 F1 O1 K7 R1 _3 L6 e0 n1 [
    8. Codec ID                                 : V_MPEG4/ISO/AVC
      9 E; g, z# Z& |. h: C6 V+ m( `$ {3 A
    9. Duration                                 : 2h 42mn# d' I! g" s5 M: W8 m
    10. Bit rate                                 : 17.2 Mbps
      2 O. |2 A& `0 Y/ z0 z: h' t3 I
    11. Width                                    : 1 920 pixels
      ; b7 _& o" J6 ~4 `, ]$ x: ^
    12. Height                                   : 1 040 pixels* O8 h* Q' x8 j  N& ~
    13. Display aspect ratio                     : 1.85:14 @, m4 b8 N5 G+ r2 ?( b
    14. Frame rate mode                          : Constant
      ! J" C0 \3 Q% x5 f+ _
    15. Frame rate                               : 24.000 fps
      * r2 F. v7 `( L. U- r. Z' A- ^4 F" Y
    16. Color space                              : YUV
      8 g% i9 l% m4 T6 p5 M  L
    17. Chroma subsampling                       : 4:2:04 I( o" \! F" `. \7 g, X# D2 @$ V: M
    18. Bit depth                                : 8 bits) F9 U  s) B* {' K9 Z; E
    19. Scan type                                : Progressive% ?9 M1 A* _" o1 y0 W- M
    20. Bits/(Pixel*Frame)                       : 0.358
      + V; c, o2 u8 w( w2 H# E/ j# `
    21. Stream size                              : 19.4 GiB (96%)" W( o6 M2 ^0 V9 i( D
    22. Title                                    : -EA
      ; |! s, x& R1 _
    23. Writing library                          : x264 core 148 r2744+55 950084e t_mod_Custom [8-bit@all X86_64]% L# \7 z; f7 T+ K! C- i) A
    24. Encoding settings                        : cabac=1 / ref=4 / deblock=1:-3:-3 / analyse=0x3:0x113 / me=umh / subme=10 / psy=1 / fade_compensate=0.00 / psy_rd=1.04:0.00 / mixed_ref=1 / me_range=32 / chroma_me=1 / trellis=2 / 8x8dct=1 / cqm=0 / deadzone=21,11 / fast_pskip=0 / chroma_qp_offset=-2 / threads=24 / lookahead_threads=4 / sliced_threads=0 / nr=0 / decimate=0 / interlaced=0 / bluray_compat=0 / constrained_intra=0 / fgo=0 / bframes=7 / b_pyramid=2 / b_adapt=2 / b_bias=0 / direct=3 / weightb=1 / open_gop=0 / weightp=2 / keyint=240 / keyint_min=23 / scenecut=40 / intra_refresh=0 / rc_lookahead=60 / rc=crf / mbtree=0 / crf=18.0000 / qcomp=0.75 / qpmin=0:0:0 / qpmax=69:69:69 / qpstep=4 / vbv_maxrate=62500 / vbv_bufsize=78125 / crf_max=0.0 / nal_hrd=none / filler=0 / ip_ratio=1.30 / pb_ratio=1.20 / aq=3:0.80 / aq-sensitivity=10.00 / aq-factor=1.00:1.00:1.00 / aq2=1:0.70 / aq2-sensitivity=15.00 / aq2-factor=1.00:1.00:1.00 / aq3=1:[0.70:0.70]:[0.70:0.70]:[0.70:0.70]:[0.70:0.70] / aq3-sensitivity=10.00 / aq3-factor=[1.00:1.00]:[1.00:1.00]:[1.00:1.00] / aq3-boundary=192:64:24' g" q1 ]# j7 f5 Y  Y6 G
    25. Language                                 : German
      2 M+ y( U) s9 ^$ g- H. A
    26. Default                                  : Yes
      , h2 X& ], L& W5 C  R
    27. Forced                                   : No
      & X' ]5 s9 X- ]. V; _& c' M
    28. Color range                              : Limited- u1 N5 h2 u8 d$ l
    29. Color primaries                          : BT.709" n! e; O; j% B* M* F; r0 L! e, e
    30. Transfer characteristics                 : BT.709
      7 q( q) C: R$ Q3 I4 y. K
    31. Matrix coefficients                      : BT.709
      ' W# P. E* N; w( i; w9 H& e2 B' f3 A
    32. 7 R+ M3 X; l/ c4 E) s0 s
    33. Audio #1* W- A4 p% L! J7 Q" J
    34. ID                                       : 2" d$ R% p/ z3 M) O" }& }5 R
    35. Format                                   : AC-39 {7 V- ]6 U: q$ w! n5 B9 _# b* w. e
    36. Format/Info                              : Audio Coding 3) X6 W/ a3 T- y9 n' [" @2 T) i
    37. Mode extension                           : CM (complete main)
      / i, @2 L* I2 |' T* u
    38. Format settings, Endianness              : Big
      6 y( A1 M% |% a6 Y: k9 U/ U1 V
    39. Codec ID                                 : A_AC3
      0 w3 t5 L! T* Y3 w1 Z) q
    40. Duration                                 : 2h 42mn$ A5 F% e6 r' _# ^; g( s
    41. Bit rate mode                            : Constant
      0 b7 R; a3 [' d+ K6 |( Z* r! j
    42. Bit rate                                 : 640 Kbps
      1 v1 j$ x* i) R6 d8 y2 O
    43. Channel(s)                               : 6 channels6 A, k: R9 F! |$ W" ^/ O
    44. Channel positions                        : Front: L C R, Side: L R, LFE3 A* Y! I; \2 L: H
    45. Sampling rate                            : 48.0 KHz# w" Y5 v# x' ^% z$ v5 z
    46. Frame rate                               : 31.250 fps (1536 spf)
      $ G) b' B% K. v) o: M2 i0 }6 I$ I" c
    47. Compression mode                         : Lossy
        o0 T8 b* H9 h4 U
    48. Stream size                              : 743 MiB (4%)
      / ]  a+ w' |! M9 q; i& e
    49. Language                                 : German
      5 b3 q& c6 x/ }% i1 k# M6 w
    50. Default                                  : Yes* `$ S4 F* H, `. Z2 S
    51. Forced                                   : Yes
      ) h$ [9 L" X% z: \1 w2 _! e4 S

    52. 4 w/ ]  q* F& O) |( c, m
    53. Audio #2
      + D9 i+ f# x2 g) F5 Y) O, w  U
    54. ID                                       : 3
      , N0 |8 k/ O# ?1 r# B1 J6 r. I+ _
    55. Format                                   : AAC
      7 D$ ^% f4 Y! {& g
    56. Format/Info                              : Advanced Audio Codec7 A# U% k) ~* P6 O0 y5 ~
    57. Format profile                           : HE-AAC / LC1 D) \! F; b3 T) S' B+ [; E
    58. Codec ID                                 : A_AAC
      % Q) p8 m9 T/ ^* e
    59. Duration                                 : 2h 42mn
      $ J; V2 a+ W" T: B; k! h  \# p% x
    60. Bit rate                                 : 64.0 Kbps# l4 i, X* ]+ W' O, z
    61. Channel(s)                               : 2 channels% `+ b3 B2 u1 y9 z  y6 R( ]
    62. Channel positions                        : Front: L R
      4 Q2 n3 q; ^8 P5 L, Z# ~$ i
    63. Sampling rate                            : 48.0 KHz / 24.0 KHz
      ' c3 N0 Q7 Y6 V! w, T1 s
    64. Frame rate                               : 23.438 fps (1024 spf)+ ]0 I6 z# l6 {9 i, x5 y% _  f
    65. Compression mode                         : Lossy
      8 e, x! i# M& C
    66. Delay relative to video                  : 31ms
      & Z0 F' d& q9 d+ @
    67. Stream size                              : 74.3 MiB (0%)4 m  d; g, S3 P8 x' T
    68. Title                                    : Commentary with M. Ade, S. Hüller, P. Simonischek
      " }  y, e6 K. z
    69. Language                                 : German( q' e3 C8 `6 t
    70. Default                                  : No+ u/ O: l6 a& j( [
    71. Forced                                   : No9 o: |* |" V  a$ s- A& g5 r

    72. * p; ^, F: |/ K
    73. Text #1- Y: j5 D9 m* Y5 l3 C
    74. ID                                       : 4
      , r9 o9 _$ g# b3 q5 }3 q
    75. Format                                   : UTF-8+ U, C3 k/ n) [/ Z! ^% z
    76. Codec ID                                 : S_TEXT/UTF8# j* C" k$ W+ X! w: P% h8 U: Q
    77. Codec ID/Info                            : UTF-8 Plain Text1 ^' o/ b9 `( ~6 T5 i
    78. Duration                                 : 2h 40mn4 v0 `$ _$ s+ t4 X" O
    79. Bit rate                                 : 22 bps. q+ T' V; D# h
    80. Count of elements                        : 869
      0 @8 ~/ V) T1 S
    81. Stream size                              : 26.6 KiB (0%); H% A6 O3 q; y+ }' n
    82. Title                                    : srt
      7 K/ a4 ?1 Q5 [: C
    83. Language                                 : English
      8 U# I0 ?, p4 f' J% [( v$ e2 ~  i
    84. Default                                  : Yes# p4 w4 c+ A3 e; Z4 |" e
    85. Forced                                   : Yes& s! @$ T  e$ S$ @4 v

    86. 2 I% f, v, |8 I, b) [" O  R
    87. Text #2
      $ \  N9 l' v: P  d
    88. ID                                       : 50 Q9 F) @# i/ U
    89. Format                                   : PGS3 v8 u* C2 ^0 V7 [9 p* S2 \* O
    90. Muxing mode                              : zlib. u" ]3 G- o3 g! L
    91. Codec ID                                 : S_HDMV/PGS
      . J' U  i& P  n- ?' i( S- b+ N
    92. Codec ID/Info                            : Picture based subtitle format used on BDs/HD-DVDs& D9 P2 m# |. K
    93. Duration                                 : 2h 23mn
      6 n  w" m5 N- m4 B9 z$ I/ n( V
    94. Bit rate                                 : 6 306 bps
      ' j# u; N+ ]8 W6 E7 |9 G( t
    95. Count of elements                        : 1024
      ' ^& {8 ^! g" X1 ?2 R
    96. Stream size                              : 6.47 MiB (0%)+ `2 b9 r: G4 w) r+ p: M! \
    97. Title                                    : sup/ ^* L6 u; b7 i& ^
    98. Language                                 : German
      ; v* F) O+ \6 u3 G0 \! R8 |
    99. Default                                  : No
      9 c! d1 T2 S* e; R
    100. Forced                                   : No
      # {3 B2 B8 j- l6 n1 I

    101. 9 P/ e1 ^; r1 Z, ]( r! m
    102. Text #3
      8 D8 M3 ~* l" g/ m8 E, s% \
    103. ID                                       : 65 V  Q9 @3 [" }# A- M
    104. Format                                   : PGS5 G$ u7 r( r' c$ r
    105. Muxing mode                              : zlib
      & G4 N$ t, c# g/ g5 V+ c
    106. Codec ID                                 : S_HDMV/PGS
      7 d8 [1 f* q& V& V& V7 G0 {8 v7 k6 i
    107. Codec ID/Info                            : Picture based subtitle format used on BDs/HD-DVDs$ R; M0 T3 i9 l2 X" i
    108. Duration                                 : 2h 41mn
      - h' h4 x7 h6 t7 L1 q; f; J/ G/ Z2 G
    109. Bit rate                                 : 19.9 Kbps
      $ D" v. |& R4 u( K+ j
    110. Count of elements                        : 3626  M  M- ?# a, X9 Q" r) X- h) B( r
    111. Stream size                              : 23.0 MiB (0%)
      6 ^3 p3 ?$ X% z" I! u
    112. Title                                    : sup HoH9 q' \0 Q4 ?9 O1 ?! e8 ]3 ~6 I
    113. Language                                 : German1 P8 |' [6 E9 T" A) ^
    114. Default                                  : No5 h! }# B6 z  P9 F6 D
    115. Forced                                   : No4 H: @+ j+ E4 H6 T5 n, e0 N
    116. ! Y4 q, `0 F# t5 ?7 ^% y
    117. Menu #11 M0 U, y& O7 b# w8 i
    118. 00:00:00.000                             : en:00:00:00.0006 L3 b, Q9 m8 N1 j
    119. 00:09:06.625                             : en:00:09:06.625- z* ]- S! X! A6 Y- M4 [( d0 v0 K1 |( |
    120. 00:18:02.917                             : en:00:18:02.917
      3 `' j! u+ T9 O
    121. 00:36:33.833                             : en:00:36:33.833
      : A8 x( z4 V+ q5 Z# J/ Z7 ?
    122. 00:52:43.833                             : en:00:52:43.833* Z0 K3 Z. i. g, x: f4 Y1 k( b
    123. 01:11:32.167                             : en:01:11:32.167
      2 v: Q0 ?; O: j& W9 M
    124. 01:36:39.917                             : en:01:36:39.917
      ; Q2 w$ V+ ]5 X" ~. X4 t) _
    125. 02:06:09.958                             : en:02:06:09.958
      7 B( v7 ?* S7 O- a- G
    126. 02:27:28.958                             : en:02:27:28.958
      4 I1 A1 @. P7 c' V0 e/ d3 ~: I- f
    127. 8 ~4 _+ P" O8 B0 [) A0 U: i) w) ~
    128. Menu #2, r$ h, @6 J8 {5 M, J% M, D4 d
    129. 00:00:00.097                             : en:00:00:00.097: v/ I5 |3 y$ I+ p; ~" K- p4 u
    复制代码
    . W4 i- Y7 s$ K6 s, u4 Q8 A$ m$ A
    -------------------------
    # `4 I" g& S& I$ k+ V◎精彩剧照
    : a) [  i% v; |" {- x& Z1 G
    , D1 d6 F0 K% A# }5 D( T9 {* U* P-------------------------
    6 _/ T6 s7 ?' k, e7 u; H[以上高清电影剧照来自互联网,不代表此片高清剧照]
    ' w1 P& R! U( U+ |郑重声明:本站提供的所有高清电影作品均是在网上搜集,任何涉及商业盈利目的均不得使用,否则产生的一切后果将由您自己承担!本站将不对本站的任何内容负任何法律责任!该下载内容仅做宽带测试使用,请在下载后24小时内删除。请购买正
    版!
    # O# J6 q" y. E! ^) j-------------------------
    - f$ H; J; z7 W5 H+ n0 b◎种子下载地址
    9 w) d/ `4 `# \) N2 o; g' a* w
    游客,如果您要查看本帖隐藏内容请回复
    . g3 D, m& ?  |( x

    6 L' V* E; C# j  O* V% M9 z- E0 }
    回复

    使用道具 举报

  • TA的每日心情
    慵懒
    2017-1-6 08:33
  • 签到天数: 8 天

    连续签到: 4 天

    [LV.3]偶尔看看II

    发表于 2017-1-4 10:04:24 | 显示全部楼层
    谢谢谢谢
    * z) T6 A0 a. y) L9 L谢谢谢谢+ G& @( B+ _  l# N) `
    谢谢谢谢
    5 d: t2 r- O  n9 \/ c$ A# ?
    回复 支持 反对

    使用道具 举报

  • TA的每日心情
    开心
    2017-2-8 12:29
  • 签到天数: 13 天

    连续签到: 1 天

    [LV.3]偶尔看看II

    发表于 2017-1-4 10:23:28 | 显示全部楼层
    多谢分享,人生平淡
    8 y) g  }: C: P0 g
    [发帖际遇]: imis041 发帖时在路边捡到 3 蓝光币,偷偷放进了口袋. 幸运榜 / 衰神榜
    回复 支持 反对

    使用道具 举报

  • TA的每日心情
    开心
    2017-1-19 19:17
  • 签到天数: 24 天

    连续签到: 1 天

    [LV.4]偶尔看看III

    发表于 2017-1-4 10:28:03 | 显示全部楼层
    从简介上非常让我感兴趣 谢谢楼主" Y0 V" j3 @7 L, u4 W1 u  j
    ! x" q8 e, e, h" h( S/ F$ q; J: T+ k
    [发帖际遇]: freehytoo 乐于助人,奖励 2 蓝光币. 幸运榜 / 衰神榜
    回复 支持 反对

    使用道具 举报

  • TA的每日心情
    无聊
    2017-1-4 09:51
  • 签到天数: 1 天

    连续签到: 1 天

    [LV.1]初来乍到

    发表于 2017-1-4 10:29:05 | 显示全部楼层
    多谢分享,人生平淡" G# b
    回复 支持 反对

    使用道具 举报

  • TA的每日心情
    无聊
    2017-1-4 09:51
  • 签到天数: 1 天

    连续签到: 1 天

    [LV.1]初来乍到

    发表于 2017-1-4 10:35:13 | 显示全部楼层
    8 F9 P, ~& f( r& w! e
    下载来看看,感觉还可以
    [发帖际遇]: zjiewang 乐于助人,奖励 3 蓝光币. 幸运榜 / 衰神榜
    回复 支持 反对

    使用道具 举报

  • TA的每日心情
    无聊
    昨天 09:53
  • 签到天数: 204 天

    连续签到: 1 天

    [LV.7]常住居民III

    发表于 2017-1-4 11:03:23 | 显示全部楼层
    感谢楼主分享。; \8 h: w/ F9 _; G4 U8 M
    回复 支持 反对

    使用道具 举报

  • TA的每日心情
    开心
    4 天前
  • 签到天数: 121 天

    连续签到: 3 天

    [LV.7]常住居民III

    发表于 2017-1-4 11:26:59 | 显示全部楼层
    感谢楼主分享& ^2 X, T% g4 G# O' q6 c
    回复 支持 反对

    使用道具 举报

  • TA的每日心情
    开心
    前天 14:21
  • 签到天数: 73 天

    连续签到: 1 天

    [LV.6]常住居民II

    发表于 2017-1-4 11:40:35 | 显示全部楼层
    感谢楼主分享!!!
    回复 支持 反对

    使用道具 举报

    您需要登录后才可以回帖 登录 | 立即加入

    本版积分规则

    您尚未登录,请登陆后浏览更精彩内容!
     立即加入
    找回密码

    QQ| 客服QQ:15608182|Archiver|手机版|小黑屋| 蓝光论坛  

    返回顶部
    x

    关注微信有机会赢取VIP资格

      

    Copyright © 2001-2013 Comsenz Inc.  Template by 蓝光电影论坛 All Rights Reserved.

    Powered by Discuz! X3.2( ICP备11019663号-4 )

    快速回复 返回顶部 返回列表