找回密码

蓝光电影论坛

查看: 2758|回复: 187

[喜剧] [2016][德国][喜剧][托尼·厄德曼/颠父人生][1080P-20.27G][MKV]DD5.1

  [复制链接]
  • TA的每日心情
    无聊
    2015-10-16 08:48
  • 签到天数: 5 天

    连续签到: 1 天

    [LV.2]偶尔看看I

     成长值: 8140

    发表于 2017-1-4 09:58:28 | 显示全部楼层 |阅读模式

    马上注册,获取最新影视资讯,享用更多功能,让你轻松玩转高清论坛。

    您需要 登录 才可以下载或查看,没有帐号?立即加入

    x
    [2016][德国][喜剧][托尼·厄德曼/颠父人生][1080P-20.27G][MKV]DD5.1- E% x; y5 u1 |6 k
    b.jpg ! J. x3 x* l# G5 o! o
    ◎影片基本信息
    9 u- h1 S* l7 c6 P- M大小: 20.27G
    3 ~% C3 n" B+ d清晰度: 1080P" W  V$ f! k8 g$ [( Z
    视频: MKV
    + W, T& o# l7 D& g9 V2 z" d8 r豆瓣评分: 7.73 j7 i! m& _$ @, E
    导演: 玛伦·阿德1 v. \; d/ E4 d5 t: M
    编剧: 玛伦·阿德
    # A% w+ ?% f! n主演: 彼得·西蒙尼舍克 / 桑德拉·惠勒 / 迈克尔·韦滕博恩 / 托马斯·洛伊布尔 / 特里斯坦·普特 / 哈德维奇·米尼斯 / 露西·拉塞尔 / 英格丽·比苏 / 弗拉德·伊凡诺夫 / 维多利亚·寇提亚斯 / 拉杜·班泽鲁 / 尼尔斯·伯曼 / 英格丽·伯克哈特6 \* p8 J( ^% l  v0 V
    类型: 剧情 / 喜剧2 A2 v- r3 `& T& m3 j8 R5 S& ^) x5 G
    制片国家/地区: 德国 / 奥地利0 G6 h* ~0 W5 ]5 K1 J- Z
    语言: 德语 / 英语 / 罗马尼亚语6 B/ `4 F) g' w& q# w
    上映日期: 2016-05-14(戛纳电影节) / 2016-07-14(德国) / 2016-08-17(法国), T; r1 P4 v0 H( t$ @3 a
    片长: 162分钟4 p/ h$ h  ]' @7 G+ [* Y) Y7 ~
    又名: 颠父人生(台)+ H: }% P8 B- K6 U) Q
    影片: Toni.Erdmann.2016.GERMAN.1080p.BluRay.x264.DD5.1-EA

    ( q& @) l9 Z% Z: t0 v◎剧情简介
    , u8 ~5 s# {3 I0 u       Inès在一家位于布加勒斯特的德国大型企业工作。她的生活一直井然有序,直到她的父亲Winfried突然造访,并向她提出了这个问题:“你幸福吗?”面对这个根本无法回答的问题,她的生活开始出现一系列翻天覆地的变化。她并不喜欢自己的父亲,甚至有点以他为耻,但他却通过捏造一个名叫Toni Erdmann的诙谐人物,试图为她的生活找到一个方向。- \' |/ Y3 d" l1 u! f. i9 q

      o3 H+ D9 O3 R5 ]1 ^8 d' u-------------------------3 ?1 |& S' T7 d3 k) G1 d( z
    1. Video. q9 A: T3 Y0 D* c
    2. ID                                       : 14 |, C8 o! s6 M' K$ F2 ~3 W
    3. Format                                   : AVC- d9 }7 A! X5 S5 F2 }
    4. Format/Info                              : Advanced Video Codec
      ' E) y* q% \  H! b5 o- e9 n, w  d
    5. Format profile                           : [email protected]2 U1 _. |) h. h0 D0 n
    6. Format settings, CABAC                   : Yes2 j0 F3 h% D4 T* n) g
    7. Format settings, ReFrames                : 4 frames" k* v: N$ c6 n1 ?: Q
    8. Codec ID                                 : V_MPEG4/ISO/AVC
      ( [; y6 Z2 v9 j' [! [+ B) l% Z
    9. Duration                                 : 2h 42mn1 Z, _# f  y' h4 u4 T0 R1 ?+ _4 }
    10. Bit rate                                 : 17.2 Mbps
      ; E2 @# S) C$ |( ^
    11. Width                                    : 1 920 pixels
      7 [$ {& t! U3 `1 k
    12. Height                                   : 1 040 pixels
      ; \4 J( c3 ~/ q' v5 F/ N5 o
    13. Display aspect ratio                     : 1.85:13 @( z- A4 ~+ D5 f9 O
    14. Frame rate mode                          : Constant+ V1 D+ l8 O7 [/ V7 Y
    15. Frame rate                               : 24.000 fps
      # K% S& P4 Z! S' ]+ g" Z0 j: C! V
    16. Color space                              : YUV
      8 a# t# }: c, Z) ?, A: y; d
    17. Chroma subsampling                       : 4:2:0# ?0 h$ S( \. B
    18. Bit depth                                : 8 bits
      * R/ b, z. E$ |
    19. Scan type                                : Progressive
      3 n4 F% E/ r6 |1 O" Y
    20. Bits/(Pixel*Frame)                       : 0.3582 j; ^' O# o3 ~$ Y. `, v
    21. Stream size                              : 19.4 GiB (96%)
      - ]  z8 Y* F! h& G3 c% f2 _
    22. Title                                    : -EA
      * H& [5 J* D& |, }5 K6 P
    23. Writing library                          : x264 core 148 r2744+55 950084e t_mod_Custom [[email protected] X86_64]# ^) C! J/ [4 p! P' g2 Q
    24. Encoding settings                        : cabac=1 / ref=4 / deblock=1:-3:-3 / analyse=0x3:0x113 / me=umh / subme=10 / psy=1 / fade_compensate=0.00 / psy_rd=1.04:0.00 / mixed_ref=1 / me_range=32 / chroma_me=1 / trellis=2 / 8x8dct=1 / cqm=0 / deadzone=21,11 / fast_pskip=0 / chroma_qp_offset=-2 / threads=24 / lookahead_threads=4 / sliced_threads=0 / nr=0 / decimate=0 / interlaced=0 / bluray_compat=0 / constrained_intra=0 / fgo=0 / bframes=7 / b_pyramid=2 / b_adapt=2 / b_bias=0 / direct=3 / weightb=1 / open_gop=0 / weightp=2 / keyint=240 / keyint_min=23 / scenecut=40 / intra_refresh=0 / rc_lookahead=60 / rc=crf / mbtree=0 / crf=18.0000 / qcomp=0.75 / qpmin=0:0:0 / qpmax=69:69:69 / qpstep=4 / vbv_maxrate=62500 / vbv_bufsize=78125 / crf_max=0.0 / nal_hrd=none / filler=0 / ip_ratio=1.30 / pb_ratio=1.20 / aq=3:0.80 / aq-sensitivity=10.00 / aq-factor=1.00:1.00:1.00 / aq2=1:0.70 / aq2-sensitivity=15.00 / aq2-factor=1.00:1.00:1.00 / aq3=1:[0.70:0.70]:[0.70:0.70]:[0.70:0.70]:[0.70:0.70] / aq3-sensitivity=10.00 / aq3-factor=[1.00:1.00]:[1.00:1.00]:[1.00:1.00] / aq3-boundary=192:64:24" A3 ?, ~; y2 |! T3 _, ~  c& E3 O
    25. Language                                 : German
      / o2 W3 l& v7 l8 {& _+ o
    26. Default                                  : Yes5 _% X  ?: m6 i
    27. Forced                                   : No
      1 Z0 u- r' l% _4 M- l( G3 [
    28. Color range                              : Limited
      7 K( S  J  O; b& k2 U; z8 _
    29. Color primaries                          : BT.709
      # R4 a+ p" v6 K: s
    30. Transfer characteristics                 : BT.7093 F9 V2 N! v2 d
    31. Matrix coefficients                      : BT.7095 h& Z9 A6 T) D" w0 {) d) W
    32. 8 T  g! \& u4 J2 F
    33. Audio #1
      ( ~* {3 ^" @& f& A. |
    34. ID                                       : 2
      / p& U) G! F) g; R4 Z, Z
    35. Format                                   : AC-3
      2 ?  n9 f2 b6 g4 d9 @& u& j4 X' f  n
    36. Format/Info                              : Audio Coding 3
      & y9 ~: p% N8 s0 a
    37. Mode extension                           : CM (complete main)7 E2 T4 C/ }" l; n& i
    38. Format settings, Endianness              : Big/ r: q0 D) B  `% F( j
    39. Codec ID                                 : A_AC3- n! f' N7 R  }5 y
    40. Duration                                 : 2h 42mn( Y( G8 ^' K) n- I% I- v5 h$ _
    41. Bit rate mode                            : Constant  h3 k' \6 P7 E3 ^% Z8 A. S, b) ]
    42. Bit rate                                 : 640 Kbps: c2 H$ b* O  P2 I
    43. Channel(s)                               : 6 channels
      9 T6 t/ \! q  K. i- L% g/ T8 Z7 b
    44. Channel positions                        : Front: L C R, Side: L R, LFE
      ' i* ?- a: K; u, y* Y, v# Y$ M! m2 ?
    45. Sampling rate                            : 48.0 KHz6 z* ]* `' {9 K
    46. Frame rate                               : 31.250 fps (1536 spf). x, }+ Y* d" Y6 m3 f% ~* ~
    47. Compression mode                         : Lossy# J, Y( Z+ O8 m& X& ~+ \( G
    48. Stream size                              : 743 MiB (4%)
      5 w$ G+ y7 H/ {( o
    49. Language                                 : German! }) G! y6 }) K
    50. Default                                  : Yes
      6 e; i% d4 }) L( k& y( n# j: R+ \
    51. Forced                                   : Yes
      " _# x2 s  B% J$ n9 r' i
    52. / S; g" V7 U5 B. i& A
    53. Audio #2) |: l! J$ {- U/ _
    54. ID                                       : 39 I# n3 |5 [. T
    55. Format                                   : AAC9 F' I8 ~9 w( I, F6 }+ R' q/ R
    56. Format/Info                              : Advanced Audio Codec
      & p4 `' |  N$ w( P& Q% z
    57. Format profile                           : HE-AAC / LC$ R9 T+ ~( l  L* d
    58. Codec ID                                 : A_AAC
      ' K- p6 p8 N6 v( {! x; I7 R
    59. Duration                                 : 2h 42mn3 ]: Y7 a& t* _' {. u/ p' C/ A
    60. Bit rate                                 : 64.0 Kbps7 R4 A/ ]! N4 }5 u* Z
    61. Channel(s)                               : 2 channels# N6 ?, k  F" L
    62. Channel positions                        : Front: L R
      1 Q: S4 S8 l& N. m' p# U  {5 [
    63. Sampling rate                            : 48.0 KHz / 24.0 KHz
      9 R- z0 l0 N! \, n; H9 M- d
    64. Frame rate                               : 23.438 fps (1024 spf)
      ' D9 R% I7 ^" ^( a- f# V
    65. Compression mode                         : Lossy9 ?# @% b7 C4 |( ^( y- {
    66. Delay relative to video                  : 31ms
      9 x2 I( `. A% s4 w' k* q
    67. Stream size                              : 74.3 MiB (0%)
      ; Q9 k4 S3 J8 @, x$ ?( V9 O* C! s
    68. Title                                    : Commentary with M. Ade, S. Hüller, P. Simonischek
      ) t" j3 w- h7 e6 I2 o
    69. Language                                 : German/ i& J* q+ [8 N7 I; b. p
    70. Default                                  : No
      1 l# E2 \+ A. V: A
    71. Forced                                   : No
      . R  b4 x  T5 p$ t

    72. ' [  U& \" m/ F$ N2 E" n& N3 o
    73. Text #1
      ) T5 v2 p1 W2 u+ x
    74. ID                                       : 4
      6 C1 ^2 H5 r& {/ O
    75. Format                                   : UTF-8
      . ?1 R$ u5 F8 }& ~9 C
    76. Codec ID                                 : S_TEXT/UTF8  G$ d9 t) M: c* a. ?" x# [) p
    77. Codec ID/Info                            : UTF-8 Plain Text
      " \5 I. K# M3 L" s0 |8 W
    78. Duration                                 : 2h 40mn
      $ D* x4 j& A. i+ D
    79. Bit rate                                 : 22 bps+ J2 L! n$ E) |0 M9 M1 H
    80. Count of elements                        : 869
      , R/ n9 R5 S: E5 A9 F# j4 R* O
    81. Stream size                              : 26.6 KiB (0%)
      6 Z' O" g+ R% a
    82. Title                                    : srt
      ) u, x) P) s$ a! S" {  V& A
    83. Language                                 : English  X" }' E8 c" r
    84. Default                                  : Yes2 Q' N3 G7 l0 _* m* ]2 F7 |$ u
    85. Forced                                   : Yes+ n2 r0 C; E$ R8 ^4 S; v4 M
    86. 7 E8 f4 `+ W' j) q
    87. Text #2
      - ]' _( {( B3 o9 y% Y: J
    88. ID                                       : 5
      7 ?3 H# v1 _0 _1 A9 j9 Z$ n
    89. Format                                   : PGS* F' J# v+ I5 \% b( R  q
    90. Muxing mode                              : zlib
      6 q: o: B* T. P, }$ j" N' f8 G
    91. Codec ID                                 : S_HDMV/PGS& J" Z8 U3 b7 @1 x2 m5 y/ a
    92. Codec ID/Info                            : Picture based subtitle format used on BDs/HD-DVDs: P% y* l3 y, j& C+ C" m
    93. Duration                                 : 2h 23mn
      . ^( d$ }& l& M/ S0 Z
    94. Bit rate                                 : 6 306 bps
      9 ?6 g) _4 Z2 g, H" M+ M, v) h) B
    95. Count of elements                        : 1024* {! k8 g# B6 a4 K6 [; ]% w/ g; ]
    96. Stream size                              : 6.47 MiB (0%)
      6 C) l2 p/ g- p0 z" ]
    97. Title                                    : sup) ^1 E3 {5 X/ O# g
    98. Language                                 : German
      ; y+ z9 G7 `. e+ h
    99. Default                                  : No, j" X+ g3 i8 i) M9 g$ D! D
    100. Forced                                   : No9 M6 L  x7 G" x8 A/ u. P* i" s* n

    101. 4 l& ^8 I; z2 G
    102. Text #3
      % Z/ P6 H" B9 T! n/ D
    103. ID                                       : 6
      ) Z% X- @. c0 D# B; H. Y2 o
    104. Format                                   : PGS
      # H0 f7 k: Z( M( {
    105. Muxing mode                              : zlib, C  a1 j7 ^& y# R. J3 f: {. R
    106. Codec ID                                 : S_HDMV/PGS
      3 a/ i2 B! i0 ~; X
    107. Codec ID/Info                            : Picture based subtitle format used on BDs/HD-DVDs
      " m7 H4 g( ?, M+ S$ l* Y; g
    108. Duration                                 : 2h 41mn. W' p- k, B  ~. {
    109. Bit rate                                 : 19.9 Kbps" t1 _! Z/ ~: a0 R
    110. Count of elements                        : 36261 ~" U" s- f/ R9 m' _9 W, \( H
    111. Stream size                              : 23.0 MiB (0%)
      5 c' r. B. N' P; y
    112. Title                                    : sup HoH" R1 ]% ^9 O* H* P3 w# c. K
    113. Language                                 : German
      1 `0 G8 n( c2 ?6 H4 E9 E5 m
    114. Default                                  : No: {* c7 Q6 z1 }/ J& ]7 L
    115. Forced                                   : No% }" x1 g. a0 W0 o3 ~" a1 q" {

    116. 6 Z' {# q' F) z
    117. Menu #1! D- a3 H7 X: Z  J( L
    118. 00:00:00.000                             : en:00:00:00.000. E' ^& x+ f- b3 ?$ L" T7 o6 ^* g
    119. 00:09:06.625                             : en:00:09:06.625
      ; u" o0 o" [, y
    120. 00:18:02.917                             : en:00:18:02.9177 C4 w% u9 ?% _- z5 @# |2 j
    121. 00:36:33.833                             : en:00:36:33.833
      ( R6 E3 ~) B. f0 P; j" P6 R5 r
    122. 00:52:43.833                             : en:00:52:43.833
      6 \8 m0 b# `$ n! Q( d
    123. 01:11:32.167                             : en:01:11:32.167
        q" B3 C7 T/ A' m
    124. 01:36:39.917                             : en:01:36:39.9176 K. a% E$ d7 z
    125. 02:06:09.958                             : en:02:06:09.958
      4 p5 N4 _4 _7 M3 D0 |0 c
    126. 02:27:28.958                             : en:02:27:28.9585 |- b% e+ r6 R+ s1 K0 b

    127. / T: c$ S; x6 q6 P: |
    128. Menu #2
      / C& Z+ l" ~: r$ O( W6 B
    129. 00:00:00.097                             : en:00:00:00.097
      : k( L  [8 {% }: F2 R* u) t& h
    复制代码
    . j- r% N- @9 _; p3 F9 F8 _
    -------------------------( K& [$ P$ }, @* R/ B
    ◎精彩剧照& K- T  }9 I/ X3 L6 v& [0 m
    ! ]6 X5 z- U) s: R4 x" m/ `+ V
    -------------------------
    5 U1 l) A* H! O: K0 v[以上高清电影剧照来自互联网,不代表此片高清剧照]1 {% \# x4 d+ j$ m
    郑重声明:本站提供的所有高清电影作品均是在网上搜集,任何涉及商业盈利目的均不得使用,否则产生的一切后果将由您自己承担!本站将不对本站的任何内容负任何法律责任!该下载内容仅做宽带测试使用,请在下载后24小时内删除。请购买正
    版!' q0 T) O; K* `. [9 u+ i" j
    -------------------------/ z8 R' _4 R3 [1 |: P8 o0 Q5 H" S9 ^' M
    ◎种子下载地址( M9 a2 o: J6 F1 b; E4 F9 _, P
    游客,如果您要查看本帖隐藏内容请回复
    3 F& L% T( j4 I& _4 O+ `
    % t; ^1 H0 C3 a/ I
    回复

    使用道具 举报

  • TA的每日心情
    慵懒
    2017-1-6 08:33
  • 签到天数: 8 天

    连续签到: 4 天

    [LV.3]偶尔看看II

    发表于 2017-1-4 10:04:24 | 显示全部楼层
    谢谢谢谢
    3 E2 D6 F5 }7 W" }& a, d谢谢谢谢! U  X: b! j0 P6 J0 V* ?. {+ D1 L/ F
    谢谢谢谢
    2 o& Z* g, N$ F
    回复 支持 反对

    使用道具 举报

  • TA的每日心情
    开心
    2017-4-13 11:52
  • 签到天数: 23 天

    连续签到: 2 天

    [LV.4]偶尔看看III

    发表于 2017-1-4 10:23:28 | 显示全部楼层
    多谢分享,人生平淡
    1 V5 R* _4 ^1 B0 C8 I8 Q( o2 i7 a
    [发帖际遇]: imis041 发帖时在路边捡到 3 蓝光币,偷偷放进了口袋. 幸运榜 / 衰神榜
    回复 支持 反对

    使用道具 举报

  • TA的每日心情
    奋斗
    2017-4-17 13:04
  • 签到天数: 36 天

    连续签到: 2 天

    [LV.5]常住居民I

    发表于 2017-1-4 10:28:03 | 显示全部楼层
    从简介上非常让我感兴趣 谢谢楼主) d# f8 G- u7 Z, Z; S
    - q9 R- X/ v! W: K5 F0 F& r
    [发帖际遇]: freehytoo 乐于助人,奖励 2 蓝光币. 幸运榜 / 衰神榜
    回复 支持 反对

    使用道具 举报

  • TA的每日心情
    无聊
    2017-1-4 09:51
  • 签到天数: 1 天

    连续签到: 1 天

    [LV.1]初来乍到

    发表于 2017-1-4 10:29:05 | 显示全部楼层
    多谢分享,人生平淡" G# b
    回复 支持 反对

    使用道具 举报

  • TA的每日心情
    无聊
    2017-1-4 09:51
  • 签到天数: 1 天

    连续签到: 1 天

    [LV.1]初来乍到

    发表于 2017-1-4 10:35:13 | 显示全部楼层

    / H  h! A8 p* F" ~" Z下载来看看,感觉还可以
    [发帖际遇]: zjiewang 乐于助人,奖励 3 蓝光币. 幸运榜 / 衰神榜
    回复 支持 反对

    使用道具 举报

  • TA的每日心情
    奋斗
    6 天前
  • 签到天数: 226 天

    连续签到: 2 天

    [LV.7]常住居民III

    发表于 2017-1-4 11:03:23 | 显示全部楼层
    感谢楼主分享。( F4 x3 V+ P8 C$ C( R8 ], Y- O% L
    回复 支持 反对

    使用道具 举报

  • TA的每日心情
    开心
    5 天前
  • 签到天数: 146 天

    连续签到: 5 天

    [LV.7]常住居民III

    发表于 2017-1-4 11:26:59 | 显示全部楼层
    感谢楼主分享' T6 z5 }4 }) \8 B2 g  N- x
    回复 支持 反对

    使用道具 举报

  • TA的每日心情
    郁闷
    昨天 11:08
  • 签到天数: 81 天

    连续签到: 1 天

    [LV.6]常住居民II

    发表于 2017-1-4 11:40:35 | 显示全部楼层
    感谢楼主分享!!!
    回复 支持 反对

    使用道具 举报

    您需要登录后才可以回帖 登录 | 立即加入

    本版积分规则

    您尚未登录,请登陆后浏览更精彩内容!
     立即加入
    找回密码

    QQ| 客服QQ:15608182|Archiver|手机版|小黑屋| 蓝光论坛  

    返回顶部
    x

    关注微信有机会赢取VIP资格

      

    Copyright © 2001-2013 Comsenz Inc.  Template by 蓝光电影论坛 All Rights Reserved.

    Powered by Discuz! X3.2( ICP备11019663号-4 )

    快速回复 返回顶部 返回列表