找回密码

蓝光电影论坛

查看: 3246|回复: 273

[2016][中国][爱情][七月与安生][WEB-DL][1080P-2.41G][MKV]AAC2.0

  [复制链接]
  • TA的每日心情
    擦汗
    2015-7-12 14:20
  • 签到天数: 59 天

    连续签到: 1 天

    [LV.5]常住居民I

    已抛锚 成长值: 740

    发表于 2016-12-29 10:03:05 | 显示全部楼层 |阅读模式

    马上注册,获取最新影视资讯,享用更多功能,让你轻松玩转高清论坛。

    您需要 登录 才可以下载或查看,没有帐号?立即加入

    x
    [2016][中国][爱情][七月与安生][WEB-DL][1080P-2.41G][MKV]AAC2.0
    a.jpg
    ◎影片基本信息
    大小: 2.41G
    清晰度: 1080P
    视频: MKV
    豆瓣评分: 7.6
    导演: 曾国祥
    编剧: 林咏琛 / 李媛 / 许伊萌 / 吴楠 / 安妮宝贝
    主演: 周冬雨 / 马思纯 / 李程彬 / 李萍 / 蔡纲 / 蒙亭宜 / 沙全泽 / 姚欣言 / 李昊芳 / 蒋亭轩
    类型: 剧情 / 爱情
    制片国家/地区: 中国大陆 / 香港
    语言: 汉语普通话
    上映日期: 2016-09-14(中国大陆) / 2016-10-27(香港)
    片长: 109分钟
    又名: SoulMate
    影片: SoulMate 2016 1080p WEB-DL x264 AAC-SeeHD-(SeeHD.Co)

    ◎剧情简介
           七月(马思纯 饰)和安生(周冬雨 饰)的第一次相识在十三岁,她们一个是特立独行飞扬跋扈的“野孩子”,一个是单纯温婉循规蹈矩的“乖乖女”,从那一年开始,七月和安生几乎形影不离,她是她的光,她是她的影子,直到某一天,一位名为苏家明(李程彬 饰)的少年出现在了七月的身边,七月恋爱了。
      安生决定前往北京讨生活,临别之前,七月意外的发现苏家明贴身带着的玉佩,竟然出现在了安生的衣领里。安生走了,七月和苏家明的恋情持续着,他们考入了同一所大学,约定一毕业就结婚。可是,事情并没有像七月所想象的那样发展,而她和苏家明之间的关系,亦因为安生的归来而产生了新的变数。
    -------------------------
    1. General
    2. Format                         : Matroska
    3. Format version                 : Version 4 / Version 2
    4. File size                      : 2.41 GiB
    5. Duration                       : 1 h 49 min
    6. Overall bit rate               : 3 132 kb/s
    7. Encoded date                   : UTC 2016-10-28 08:53:54
    8. Writing application            : mkvmerge v7.1.0 ('Good Love') 32bit built on Jul 27 2014 12:59:18
    9. Writing library                : libebml v1.3.0 + libmatroska v1.4.1

    10. Video
    11. ID                             : 1
    12. Format                         : AVC
    13. Format/Info                    : Advanced Video Codec
    14. Format profile                 : [email protected]
    15. Format settings, CABAC         : Yes
    16. Format settings, ReFrames      : 4 frames
    17. Codec ID                       : V_MPEG4/ISO/AVC
    18. Duration                       : 1 h 49 min
    19. Bit rate                       : 3 002 kb/s
    20. Width                          : 1 920 pixels
    21. Height                         : 800 pixels
    22. Display aspect ratio           : 2.40:1
    23. Frame rate mode                : Constant
    24. Frame rate                     : 24.000 FPS
    25. Color space                    : YUV
    26. Chroma subsampling             : 4:2:0
    27. Bit depth                      : 8 bits
    28. Scan type                      : Progressive
    29. Bits/(Pixel*Frame)             : 0.081
    30. Stream size                    : 2.31 GiB (96%)
    31. Writing library                : Provided by www.letv.com  :: H.264/MPEG-4 AVC codec -V 1.6.09-20151125
    32. Default                        : Yes
    33. Forced                         : No

    34. Audio
    35. ID                             : 2
    36. Format                         : AAC
    37. Format/Info                    : Advanced Audio Codec
    38. Format profile                 : LC
    39. Codec ID                       : A_AAC
    40. Duration                       : 1 h 49 min
    41. Bit rate                       : 128 kb/s
    42. Channel(s)                     : 2 channels
    43. Channel positions              : Front: L R
    44. Sampling rate                  : 44.1 kHz
    45. Frame rate                     : 43.066 FPS (1024 spf)
    46. Compression mode               : Lossy
    47. Delay relative to video        : -46 ms
    48. Stream size                    : 101 MiB (4%)
    49. Default                        : Yes
    50. Forced                         : No


    复制代码

    -------------------------
    ◎精彩剧照

    -------------------------
    [以上高清电影剧照来自互联网,不代表此片高清剧照]
    郑重声明:本站提供的所有高清电影作品均是在网上搜集,任何涉及商业盈利目的均不得使用,否则产生的一切后果将由您自己承担!本站将不对本站的任何内容负任何法律责任!该下载内容仅做宽带测试使用,请在下载后24小时内删除。请购买正
    版!
    -------------------------
    ◎种子下载地址
    游客,如果您要查看本帖隐藏内容请回复


    回复

    使用道具 举报

  • TA的每日心情
    擦汗
    昨天 10:57
  • 签到天数: 505 天

    连续签到: 9 天

    [LV.9]以坛为家II

    发表于 2016-12-29 10:14:39 | 显示全部楼层
    下来看看,谢谢楼主分享!

    回复 支持 反对

    使用道具 举报

  • TA的每日心情
    无聊
    24 分钟前
  • 签到天数: 73 天

    连续签到: 2 天

    [LV.6]常住居民II

    发表于 2016-12-29 10:17:46 | 显示全部楼层
    不习惯看这类文艺片,感谢分享
    回复 支持 反对

    使用道具 举报

  • TA的每日心情
    开心
    2017-1-18 14:29
  • 签到天数: 26 天

    连续签到: 1 天

    [LV.4]偶尔看看III

    发表于 2016-12-29 10:24:45 | 显示全部楼层
    如花岁月,值得讴歌!
    [发帖际遇]: tszxzhz1 乐于助人,奖励 1 蓝光币. 幸运榜 / 衰神榜
    回复 支持 反对

    使用道具 举报

  • TA的每日心情
    奋斗
    2017-1-13 19:41
  • 签到天数: 113 天

    连续签到: 1 天

    [LV.6]常住居民II

    发表于 2016-12-29 10:26:32 | 显示全部楼层
    好好看的样子
    回复 支持 反对

    使用道具 举报

  • TA的每日心情
    开心
    昨天 08:42
  • 签到天数: 249 天

    连续签到: 1 天

    [LV.8]以坛为家I

    发表于 2016-12-29 10:36:10 | 显示全部楼层
    谢谢楼主分享!!
    [发帖际遇]: zzjinying 发帖时在路边捡到 2 蓝光币,偷偷放进了口袋. 幸运榜 / 衰神榜
    回复 支持 反对

    使用道具 举报

  • TA的每日心情
    慵懒
    昨天 10:50
  • 签到天数: 68 天

    连续签到: 3 天

    [LV.6]常住居民II

    发表于 2016-12-29 10:48:40 | 显示全部楼层
    看看,谢谢楼主分享!
    回复 支持 反对

    使用道具 举报

  • TA的每日心情
    开心
    5 天前
  • 签到天数: 471 天

    连续签到: 5 天

    [LV.9]以坛为家II

    发表于 2016-12-29 10:56:43 | 显示全部楼层
    本人真的不喜欢这种类型的电影!
    回复 支持 反对

    使用道具 举报

  • TA的每日心情
    奋斗
    2017-1-10 10:38
  • 签到天数: 10 天

    连续签到: 2 天

    [LV.3]偶尔看看II

    发表于 2016-12-29 10:57:41 | 显示全部楼层
    谢谢楼主分享
    回复 支持 反对

    使用道具 举报

    您需要登录后才可以回帖 登录 | 立即加入

    本版积分规则

    您尚未登录,请登陆后浏览更精彩内容!
     立即加入
    找回密码

    QQ| 客服QQ:15608182|Archiver|手机版|小黑屋| 蓝光论坛  

    返回顶部
    x

    关注微信有机会赢取VIP资格

      

    Copyright © 2001-2013 Comsenz Inc.  Template by 蓝光电影论坛 All Rights Reserved.

    Powered by Discuz! X3.2( ICP备11019663号-4 )

    快速回复 返回顶部 返回列表