找回密码

蓝光电影论坛

查看: 7695|回复: 574
打印 上一主题 下一主题

[国产剧] [2016][中国][奇幻/喜剧][我不是妖怪][1080P-9.28G][MP4]AAC2.0

  [复制链接]
  • TA的每日心情
    擦汗
    2015-7-12 14:20
  • 签到天数: 59 天

    连续签到: 1 天

    [LV.5]常住居民I

    已抛锚 成长值: 1440

    跳转到指定楼层
    楼主
    发表于 2016-12-27 11:34:18 | 只看该作者 |只看大图 回帖奖励 |倒序浏览 |阅读模式

    马上注册,获取最新影视资讯,享用更多功能,让你轻松玩转高清论坛。

    您需要 登录 才可以下载或查看,没有帐号?立即加入

    x
    [2016][中国][奇幻/喜剧][我不是妖怪][1080P-9.28G][MP4]AAC2.0

    ◎影片基本信息
    大小: 9.28G
    清晰度: 1080P
    视频: MP4
    豆瓣评分: 6.9
    导演: 李泽露
    编剧: 闻情解佩
    主演: 张雨剑 / 刘冬沁 / 王嵛 / 书亚信 / 吴优 / 左航
    类型: 喜剧 / 奇幻
    制片国家/地区: 中国大陆
    语言: 汉语普通话
    首播: 2016-10-07(中国大陆)
    集数: 12
    单集片长: 45分钟
    又名: I'm Not A Monster

    ◎剧情简介
           该剧由张小花的小说《我就是妖怪》改编,讲述四位非常享受地球平凡生活的外星人隐藏在奇妙社区,过着普通百姓的生活,他们利用自己的超能力解决一系列人类生活中的离奇事件。
    -------------------------
    1. General
    2. Format                         : MPEG-4
    3. Format profile                 : Base Media
    4. Codec ID                       : isom (isom/iso2/avc1/mp41)
    5. File size                      : 734 MiB
    6. Duration                       : 45 min 9 s
    7. Overall bit rate               : 2 272 kb/s
    8. Writing application            : Lavf56.40.101
    9. Copyright                      : HDATV

    10. Video
    11. ID                             : 1
    12. Format                         : AVC
    13. Format/Info                    : Advanced Video Codec
    14. Format profile                 : High@L4
    15. Format settings, CABAC         : Yes
    16. Format settings, ReFrames      : 3 frames
    17. Codec ID                       : avc1
    18. Codec ID/Info                  : Advanced Video Coding
    19. Duration                       : 45 min 9 s
    20. Bit rate                       : 2 203 kb/s
    21. Width                          : 1 920 pixels
    22. Height                         : 1 080 pixels
    23. Display aspect ratio           : 16:9
    24. Frame rate mode                : Variable
    25. Frame rate                     : 25.000 FPS
    26. Minimum frame rate             : 10.000 FPS
    27. Maximum frame rate             : 25.641 FPS
    28. Color space                    : YUV
    29. Chroma subsampling             : 4:2:0
    30. Bit depth                      : 8 bits
    31. Scan type                      : Progressive
    32. Bits/(Pixel*Frame)             : 0.042
    33. Stream size                    : 712 MiB (97%)
    34. Writing library                : qiyi.com vtc-test
    35. Color range                    : Limited
    36. Color primaries                : BT.709
    37. Transfer characteristics       : BT.709
    38. Matrix coefficients            : BT.709

    39. Audio
    40. ID                             : 2
    41. Format                         : AAC
    42. Format/Info                    : Advanced Audio Codec
    43. Format profile                 : HE-AAC / LC
    44. Codec ID                       : 40
    45. Duration                       : 45 min 9 s
    46. Bit rate mode                  : Constant
    47. Bit rate                       : 64.0 kb/s
    48. Channel(s)                     : 2 channels
    49. Channel positions              : Front: L R
    50. Sampling rate                  : 44.1 kHz / 22.05 kHz
    51. Frame rate                     : 21.533 FPS (1024 spf)
    52. Compression mode               : Lossy
    53. Stream size                    : 20.7 MiB (3%)
    54. Default                        : Yes
    55. Alternate group                : 1


    复制代码

    -------------------------
    ◎精彩剧照

    -------------------------
    [以上高清电影剧照来自互联网,不代表此片高清剧照]
    郑重声明:本站提供的所有高清电影作品均是在网上搜集,任何涉及商业盈利目的均不得使用,否则产生的一切后果将由您自己承担!本站将不对本站的任何内容负任何法律责任!该下载内容仅做宽带测试使用,请在下载后24小时内删除。请购买正
    版!
    -------------------------
    ◎种子下载地址
    游客,如果您要查看本帖隐藏内容请回复


    分享到:  QQ好友和群QQ好友和群 QQ空间QQ空间 腾讯微博腾讯微博 腾讯朋友腾讯朋友
    收藏收藏 分享分享 鲜花鲜花 鸡蛋鸡蛋1
    回复

    使用道具 举报

  • TA的每日心情
    擦汗
    5 天前
  • 签到天数: 97 天

    连续签到: 1 天

    [LV.6]常住居民II

    沙发
    发表于 2016-12-27 11:55:55 | 只看该作者
    1111111111111
    [发帖际遇]: gongjiawu 发帖时在路边捡到 1 蓝光币,偷偷放进了口袋. 幸运榜 / 衰神榜
    回复 支持 反对

    使用道具 举报

  • TA的每日心情
    开心
    2016-12-27 11:58
  • 签到天数: 55 天

    连续签到: 1 天

    [LV.5]常住居民I

    板凳
    发表于 2016-12-27 11:59:04 | 只看该作者
    谢谢分享,楼主发大财
    回复 支持 反对

    使用道具 举报

  • TA的每日心情
    开心
    昨天 00:12
  • 签到天数: 1052 天

    连续签到: 6 天

    [LV.10]以坛为家III

    地板
    发表于 2016-12-27 12:05:17 | 只看该作者
    剧由张小花的小说《我就是妖怪》改编,讲述四位非常享受地球平凡生活的外星人隐藏在奇妙社区,过着普通百姓的生活,他们利用自己的超能力解决一系列人类生活中的离奇
    [发帖际遇]: 一个钱袋子砸在了 siji 头上,siji 赚了 3 蓝光币. 幸运榜 / 衰神榜
    回复 支持 反对

    使用道具 举报

  • TA的每日心情

    2016-12-27 10:42
  • 签到天数: 3 天

    连续签到: 1 天

    [LV.2]偶尔看看I

    7#
    发表于 2016-12-27 12:12:23 | 只看该作者
    22222222222222222222222
    回复 支持 反对

    使用道具 举报

  • TA的每日心情
    奋斗
    前天 12:02
  • 签到天数: 19 天

    连续签到: 1 天

    [LV.4]偶尔看看III

    9#
    发表于 2016-12-27 12:17:34 | 只看该作者
    6666666666666666666666
    回复 支持 反对

    使用道具 举报

  • TA的每日心情
    奋斗
    2017-2-6 10:16
  • 签到天数: 94 天

    连续签到: 1 天

    [LV.6]常住居民II

    10#
    发表于 2016-12-27 12:24:08 | 只看该作者
    谢谢分享,楼主发大财
    回复 支持 反对

    使用道具 举报

    您需要登录后才可以回帖 登录 | 立即加入

    本版积分规则

    您尚未登录,请登陆后浏览更精彩内容!
     立即加入
    找回密码

    QQ| 客服QQ:15608182|Archiver|手机版|小黑屋| 蓝光论坛  

    返回顶部
    x

    关注微信有机会赢取VIP资格

      

    Copyright © 2001-2013 Comsenz Inc.  Template by 蓝光电影论坛 All Rights Reserved.

    Powered by Discuz! X3.2( ICP备11019663号-4 )

    快速回复 返回顶部 返回列表