找回密码

蓝光电影论坛

查看: 1176|回复: 87

[2015][中国台湾][爱情][234说爱你/我心凝望的爱情/第四者][1080P-2.07G][MP4]AAC2.0

  [复制链接]
  • TA的每日心情
    无聊
    2015-10-16 08:48
  • 签到天数: 5 天

    连续签到: 1 天

    [LV.2]偶尔看看I

     成长值: 9145

    发表于 2016-12-26 11:51:04 | 显示全部楼层 |阅读模式

    马上注册,获取最新影视资讯,享用更多功能,让你轻松玩转高清论坛。

    您需要 登录 才可以下载或查看,没有帐号?立即加入

    x
    本帖最后由 Semnew 于 2016-12-26 12:06 编辑

    [2015][中国台湾][爱情][234说爱你/我心凝望的爱情/第四者][1080P-2.07G][MP4]AAC2.0
    a.jpg
    ◎影片基本信息
    大小: 2.07G
    清晰度: 1080P
    视频: MP4
    豆瓣评分: 6.3
    导演: 张玮真
    编剧: 吴美枝
    主演: 秦昊 / 林依晨 / 简宏霖 / 蔡淑臻 / 周姮吟 / 曾珮瑜
    类型: 爱情
    制片国家/地区: 台湾
    语言: 汉语普通话
    上映日期: 2016-09-23(中国大陆) / 2015-10-23(台湾)
    片长: 95分钟
    又名: 我心凝望的爱情 / 第四者 / Another Woman / Pure Love

    ◎剧情简介
           简沛薰(林依晨 饰),一个初出校门的大学毕业生,渴望冒险,以为自己可以演出一场爱情游戏,却发现成人世界的爱情不只是爱情,更多的是生意考量、权力斗争,以及不同世代女人们的战争。今日社会有一新兴职业叫“第四者”,即,大老婆发现老公有了第三者,遂聘请另一女人来担任第四者,勾引老公,好让老公离开第三者。“第四者”能获得丰富的金钱报酬,却要演出一场危险的爱情游戏。
    -------------------------
    1. Format                         : MPEG-4
    2. Format profile                 : Base Media
    3. Codec ID                       : isom (isom/iso2/avc1/mp41)
    4. File size                      : 2.07 GiB
    5. Duration                       : 1 h 34 min
    6. Overall bit rate               : 3 124 kb/s
    7. Writing application            : Lavf57.25.100

    8. Video
    9. ID                             : 1
    10. Format                         : AVC
    11. Format/Info                    : Advanced Video Codec
    12. Format profile                 : High@L4
    13. Format settings, CABAC         : Yes
    14. Format settings, ReFrames      : 4 frames
    15. Codec ID                       : avc1
    16. Codec ID/Info                  : Advanced Video Coding
    17. Duration                       : 1 h 34 min
    18. Bit rate                       : 2 988 kb/s
    19. Width                          : 1 920 pixels
    20. Height                         : 800 pixels
    21. Display aspect ratio           : 2.40:1
    22. Frame rate mode                : Variable
    23. Frame rate                     : 24.000 FPS
    24. Minimum frame rate             : 23.835 FPS
    25. Maximum frame rate             : 24.038 FPS
    26. Color space                    : YUV
    27. Chroma subsampling             : 4:2:0
    28. Bit depth                      : 8 bits
    29. Scan type                      : Progressive
    30. Bits/(Pixel*Frame)             : 0.081
    31. Stream size                    : 1.98 GiB (96%)
    32. Writing library                : Provided by letv cloud  :: H.264/MPEG-4 AVC codec -V 1.6.09-20151125
    33. Color range                    : Limited
    34. Color primaries                : BT.709
    35. Transfer characteristics       : BT.709
    36. Matrix coefficients            : BT.709

    37. Audio
    38. ID                             : 2
    39. Format                         : AAC
    40. Format/Info                    : Advanced Audio Codec
    41. Format profile                 : LC
    42. Codec ID                       : 40
    43. Duration                       : 1 h 34 min
    44. Bit rate mode                  : Constant
    45. Bit rate                       : 128 kb/s
    46. Channel(s)                     : 2 channels
    47. Channel positions              : Front: L R
    48. Sampling rate                  : 44.1 kHz
    49. Frame rate                     : 43.066 FPS (1024 spf)
    50. Compression mode               : Lossy
    51. Stream size                    : 86.8 MiB (4%)
    52. Default                        : Yes
    53. Alternate group                : 1
    复制代码

    -------------------------
    ◎精彩剧照

    -------------------------
    [以上高清电影剧照来自互联网,不代表此片高清剧照]
    郑重声明:本站提供的所有高清电影作品均是在网上搜集,任何涉及商业盈利目的均不得使用,否则产生的一切后果将由您自己承担!本站将不对本站的任何内容负任何法律责任!该下载内容仅做宽带测试使用,请在下载后24小时内删除。请购买正
    版!
    -------------------------
    ◎种子下载地址
    游客,如果您要查看本帖隐藏内容请回复


    [发帖际遇]: Semnew 乐于助人,奖励 1 蓝光币. 幸运榜 / 衰神榜
    回复

    使用道具 举报

  • TA的每日心情
    开心
    6 天前
  • 签到天数: 248 天

    连续签到: 1 天

    [LV.8]以坛为家I

    发表于 2016-12-26 12:25:38 | 显示全部楼层
    多谢楼主分享
    [发帖际遇]: liuhuichang 乐于助人,奖励 1 蓝光币. 幸运榜 / 衰神榜
    回复 支持 反对

    使用道具 举报

  • TA的每日心情
    奋斗
    2 小时前
  • 签到天数: 808 天

    连续签到: 19 天

    [LV.10]以坛为家III

    发表于 2016-12-26 12:37:43 | 显示全部楼层
    谢谢楼主分享!
    回复 支持 反对

    使用道具 举报

  • TA的每日心情
    开心
    昨天 19:06
  • 签到天数: 317 天

    连续签到: 12 天

    [LV.8]以坛为家I

    发表于 2016-12-26 12:38:16 | 显示全部楼层
    234说爱你good!!!!!!!!!!!!!!
    回复 支持 反对

    使用道具 举报

  • TA的每日心情
    开心
    2017-5-16 03:55
  • 签到天数: 75 天

    连续签到: 1 天

    [LV.6]常住居民II

    发表于 2016-12-26 12:42:41 | 显示全部楼层
    njkdfngnjdngdngkdnkgnfdgdfjk
    回复 支持 反对

    使用道具 举报

  • TA的每日心情
    开心
    2017-6-9 10:47
  • 签到天数: 245 天

    连续签到: 3 天

    [LV.8]以坛为家I

    发表于 2016-12-26 13:33:31 | 显示全部楼层
    interesting, thanks
    回复 支持 反对

    使用道具 举报

  • TA的每日心情
    开心
    昨天 17:08
  • 签到天数: 191 天

    连续签到: 1 天

    [LV.7]常住居民III

    发表于 2016-12-26 13:50:16 | 显示全部楼层
    爱爱爱很很很
    回复 支持 反对

    使用道具 举报

  • TA的每日心情
    奋斗
    2017-1-10 10:38
  • 签到天数: 10 天

    连续签到: 2 天

    [LV.3]偶尔看看II

    发表于 2016-12-26 14:16:38 | 显示全部楼层
    TW的片儿可以看下,应该会比较细腻
    回复 支持 反对

    使用道具 举报

  • TA的每日心情
    擦汗
    2 小时前
  • 签到天数: 121 天

    连续签到: 2 天

    [LV.7]常住居民III

    发表于 2016-12-26 14:52:17 | 显示全部楼层
    RE: [2015][中国台湾][爱情][234说爱你/我心凝望的爱情/第四者][1080P-2.07G][MP4]AAC2.0 [[url=]修改[/url]]
    [发帖际遇]: honglinzi 发帖时在路边捡到 3 蓝光币,偷偷放进了口袋. 幸运榜 / 衰神榜
    回复 支持 反对

    使用道具 举报

    您需要登录后才可以回帖 登录 | 立即加入

    本版积分规则

    您尚未登录,请登陆后浏览更精彩内容!
     立即加入
    找回密码

    QQ| 客服QQ:15608182|如有侵权内容请联系:www1080net#qq.com 我们会及时删除|Archiver|手机版| 蓝光论坛  

    返回顶部
    x

    关注微信有机会赢取VIP资格

      

    Copyright © 2001-2013 Comsenz Inc.  Template by 蓝光电影论坛 All Rights Reserved.

    Powered by Discuz! X3.2( ICP备11019663号-4 )

    快速回复 返回顶部 返回列表