找回密码

蓝光电影论坛

查看: 48286|回复: 5833

[国产剧] [2016][中国][悬疑][鬼吹灯之精绝古城][更新至第21集][1080P][MP4]AAC2.0

  [复制链接]
  • TA的每日心情
    开心
    2017-6-18 00:02
  • 签到天数: 64 天

    连续签到: 5 天

    [LV.6]常住居民II

    发表于 2016-12-23 14:29:07 | 显示全部楼层 |阅读模式

    马上注册,获取最新影视资讯,享用更多功能,让你轻松玩转高清论坛。

    您需要 登录 才可以下载或查看,没有帐号?立即加入

    x
    [2016][中国][悬疑][鬼吹灯之精绝古城][更新至第21集][1080P][MP4]AAC2.0
    a.jpg
    ◎影片基本信息
    清晰度: 1080P
    视频: MKV
    豆瓣评分: 8.6
    导演: 孔笙 / 周游 / 孙墨龙
    编剧: 白一骢 / 天下霸唱
    主演: 靳东 / 陈乔恩 / 赵达 / 付枚 / 金泽灏 / 杨新鸣 / 冯晖 / 匡牧野 / 张晓谦 / 岳旸 / 张艺上 / 王永泉 / 吴昊宸 / 邵伟桐 / 王宏 / 魏伟 / 王双宝 / 邢宇飞 / 铁政 / 孙明明 / 朱梦瑶
    类型: 剧情 / 悬疑 / 惊悚
    制片国家/地区: 中国大陆
    语言: 汉语普通话
    首播: 2016-12-19(中国大陆)
    集数: 21
    单集片长: 35分钟
    又名: 鬼吹灯网剧版 / Candle in the Tomb
    影片: Candle.in.The.Tomb.2016.1080p.WEB-DL.x264.AAC-HQC

    ◎剧情简介
           《鬼吹灯》故事以一本家传的秘书残卷为引,讲述三位当代摸金校尉,为解开部族消失的千古之谜,利用风水秘术,解读天下大山大川的脉搏,寻找一处处失落在大地深处的龙楼宝殿。毕竟那些龙形虎藏、揭天拔地、倒海翻江的举动,都迵异庸俗,在离奇诡异的地下世界中,历史的神秘面纱正一层层地被揭开……
    -------------------------
    1. General
    2. Format                         : MPEG-4
    3. Format profile                 : Base Media
    4. Codec ID                       : isom (isom/iso2/avc1/mp41)
    5. File size                      : 732 MiB
    6. Duration                       : 34 min 24 s
    7. Overall bit rate               : 2 975 kb/s
    8. Writing application            : Lavf57.25.100

    9. Video
    10. ID                             : 1
    11. Format                         : AVC
    12. Format/Info                    : Advanced Video Codec
    13. Format profile                 : High@L4
    14. Format settings, CABAC         : Yes
    15. Format settings, ReFrames      : 4 frames
    16. Codec ID                       : avc1
    17. Codec ID/Info                  : Advanced Video Coding
    18. Duration                       : 34 min 24 s
    19. Bit rate                       : 2 874 kb/s
    20. Width                          : 1 920 pixels
    21. Height                         : 1 072 pixels
    22. Display aspect ratio           : 16:9
    23. Frame rate mode                : Variable
    24. Frame rate                     : 25.000 FPS
    25. Minimum frame rate             : 24.993 FPS
    26. Maximum frame rate             : 25.007 FPS
    27. Color space                    : YUV
    28. Chroma subsampling             : 4:2:0
    29. Bit depth                      : 8 bits
    30. Scan type                      : Progressive
    31. Bits/(Pixel*Frame)             : 0.056
    32. Stream size                    : 707 MiB (97%)

    33. Audio
    34. ID                             : 2
    35. Format                         : AAC
    36. Format/Info                    : Advanced Audio Codec
    37. Format profile                 : HE-AAC / LC
    38. Codec ID                       : 40
    39. Duration                       : 34 min 24 s
    40. Bit rate mode                  : Constant
    41. Bit rate                       : 96.0 kb/s
    42. Channel(s)                     : 2 channels
    43. Channel positions              : Front: L R
    44. Sampling rate                  : 48.0 kHz / 24.0 kHz
    45. Frame rate                     : 23.438 FPS (1024 spf)
    46. Compression mode               : Lossy
    47. Stream size                    : 23.6 MiB (3%)
    48. Default                        : Yes
    49. Alternate group                : 1


    复制代码

    -------------------------
    ◎精彩剧照

    -------------------------
    [以上高清电影剧照来自互联网,不代表此片高清剧照]
    郑重声明:本站提供的所有高清电影作品均是在网上搜集,任何涉及商业盈利目的均不得使用,否则产生的一切后果将由您自己承担!本站将不对本站的任何内容负任何法律责任!该下载内容仅做宽带测试使用,请在下载后24小时内删除。请购买正
    版!
    -------------------------
    ◎种子下载地址
    更新至第18集,要下请趁早,迅雷随时可能屏蔽。已经屏蔽掉的请参考置顶帖,自己换其他下载方式,新片就是抢时间,慢了就被屏蔽,不要发牢骚。暂时可以用QQ旋风和百度网盘顶替。
    游客,如果您要查看本帖隐藏内容请回复











    评分

    参与人数 8蓝光币 +6 收起 理由
    皇豆豆 -1 怎么下不了啦!!!!!!
    huzhe306 + 1 原来这就是真爱啊
    caoyi1014 + 1 原来这就是真爱啊
    my4kcode + 1 不错感谢楼主的贡献
    Compro_Sun + 1 1~15集种子和谐了!!!!下不了.

    查看全部评分

    回复

    使用道具 举报

  • TA的每日心情
    慵懒
    2017-9-7 08:56
  • 签到天数: 213 天

    连续签到: 1 天

    [LV.7]常住居民III

    发表于 2016-12-23 15:05:23 | 显示全部楼层
    谢谢楼主,楼主威武。
    回复 支持 2 反对 1

    使用道具 举报

  • TA的每日心情
    开心
    2017-9-4 09:33
  • 签到天数: 61 天

    连续签到: 1 天

    [LV.6]常住居民II

    发表于 2016-12-23 14:43:46 | 显示全部楼层
    很不错的电影
    回复 支持 0 反对 1

    使用道具 举报

  • TA的每日心情
    开心
    2017-9-1 09:14
  • 签到天数: 78 天

    连续签到: 1 天

    [LV.6]常住居民II

    发表于 2016-12-23 14:57:24 | 显示全部楼层
    感谢楼主分享好电视
    回复 支持 反对

    使用道具 举报

  • TA的每日心情
    开心
    前天 20:25
  • 签到天数: 197 天

    连续签到: 1 天

    [LV.7]常住居民III

    发表于 2016-12-23 15:13:11 | 显示全部楼层
    感谢楼主十分无私的奉献
    回复 支持 反对

    使用道具 举报

  • TA的每日心情
    开心
    2017-6-16 15:26
  • 签到天数: 12 天

    连续签到: 1 天

    [LV.3]偶尔看看II

    发表于 2016-12-23 15:14:18 | 显示全部楼层
    哪里那么凉快女领导f.vf
    [发帖际遇]: 一个钱袋子砸在了 chendelong 头上,chendelong 赚了 2 蓝光币. 幸运榜 / 衰神榜
    回复 支持 反对

    使用道具 举报

  • TA的每日心情
    开心
    5 天前
  • 签到天数: 274 天

    连续签到: 1 天

    [LV.8]以坛为家I

    发表于 2016-12-23 15:15:39 | 显示全部楼层
    是是是是是是
    [发帖际遇]: 竹林子 发帖时在路边捡到 2 蓝光币,偷偷放进了口袋. 幸运榜 / 衰神榜
    回复 支持 反对

    使用道具 举报

  • TA的每日心情

    前天 14:18
  • 签到天数: 82 天

    连续签到: 1 天

    [LV.6]常住居民II

    发表于 2016-12-23 15:22:12 | 显示全部楼层
    鬼吹灯之精绝古城
    回复 支持 反对

    使用道具 举报

  • TA的每日心情
    开心
    3 天前
  • 签到天数: 223 天

    连续签到: 2 天

    [LV.7]常住居民III

    发表于 2016-12-23 15:23:43 | 显示全部楼层
    谢谢楼主分享,收藏了。
    回复 支持 反对

    使用道具 举报

    您需要登录后才可以回帖 登录 | 立即加入

    本版积分规则

    您尚未登录,请登陆后浏览更精彩内容!
     立即加入
    找回密码

    QQ| QQ:15608182(不一定在线,留言看到会处理,勿催)|如有侵权内容请联系:www1080net#qq.com 会及时删除|Archiver|手机版| 蓝光论坛  

    返回顶部
    x

    关注微信 不迷路

    Copyright © 2001-2013 Comsenz Inc.  Template by 蓝光电影论坛 All Rights Reserved.

    Powered by Discuz! X3.2( ICP备11019663号-4 )

    快速回复 返回顶部 返回列表