找回密码

蓝光电影论坛

查看: 6603|回复: 1153

[灾难] [2016][韩国][动作/灾难][釜山行/尸速列车/尸杀列车][1080P-8.59G][MKV]DTS

  [复制链接]
  • TA的每日心情
    无聊
    2015-10-16 08:48
  • 签到天数: 5 天

    连续签到: 1 天

    [LV.2]偶尔看看I

     成长值: 7225

    发表于 2016-12-17 14:59:48 | 显示全部楼层 |阅读模式

    马上注册,获取最新影视资讯,享用更多功能,让你轻松玩转高清论坛。

    您需要 登录 才可以下载或查看,没有帐号?立即加入

    x
    [2016][韩国][动作/灾难][釜山行/尸速列车/尸杀列车][1080P-8.59G][MKV]DTS
    # d6 R) i% X; h& w6 w a.jpg 9 A! N1 ]( \8 s+ K9 q
    ◎影片基本信息
    : C6 a5 A# B2 t3 T大小: 8.59G1 ]# M9 W1 D/ n5 x" \7 j( I
    清晰度: 1080P: V3 G' k+ R' R* y! F
    视频: MKV
    / n+ d5 c+ z" p. e3 C0 S( f: f豆瓣评分: 8.2
    " U% E. j4 L6 U4 }( V/ U' Z导演: 延尚昊1 B  L6 ?6 [3 K+ o6 i2 C
    编剧: 延尚昊& F* t% |/ {) z
    主演: 孔侑 / 郑有美 / 马东锡 / 金秀安 / 金义城 / 崔宇植 / 安昭熙 / 沈恩京 / 禹都临$ C8 Q1 O, H/ U. j8 V4 i& t) O
    类型: 动作 / 惊悚 / 灾难9 V5 S) s# w- `0 C
    制片国家/地区: 韩国
    , M! u& s- ^4 F/ B9 B4 N语言: 韩语( W4 G1 s$ I5 T8 Y
    上映日期: 2016-05-13(戛纳电影节) / 2016-07-20(韩国)( B1 u9 v" L7 a+ \4 H7 N$ ?: \
    片长: 118分钟) e' S, L7 O1 q2 K; I( J6 U; R
    又名: 尸速列车(台) / 尸杀列车(港) / Train to Busan / Busanhaeng
    # V5 z8 l, R  j; Z0 R7 \影片: Train.to.Busan.2016.KOREAN.1080p.BluRay.x264.DTS-FGT
    4 x# e: B1 q$ h( |" T* Q4 ^
    ◎剧情简介
    ! N$ {* \5 E  R: W, }: F       证券公司基金管理人石宇(孔侑 饰)光鲜精干,却也是个重利轻义之徒。妻子为此与之决裂,女儿秀安(金秀安 饰)则对如此自私的父亲越来越失望,决定前往釜山和母亲生活。在秀安生日这天,石宇抽出时间陪伴女儿登上开往釜山的特快列车。而与此同时,城市四处出现了极为可疑的暴动事件。政府极力洗白无法掩盖丧尸肆虐的事实,即便懵然无知的列车乘客也因为不速之客的到来而堕入恐慌绝望的地狱中。开车的刹那,一名感染者冲入车厢,而她很快尸变并对目光所及之处的健康人展开血腥屠杀。未过多久,丧尸便呈几何数爆发性地增长。石宇被迫和幸存者的乘客们在逼仄的空间中奋力求生。' N2 c2 M; M0 w5 L1 ?
      通往釜山的遥遥旅途布满杀机,危难时刻每个幸存者的人性也承受巨大的考验……. I: g. a# y8 I$ L# {. t, R
    -------------------------. t/ x$ e# s0 g
    1. Video
      # F8 D' g9 s' a
    2. ID                                       : 1# l: i* w4 g3 b$ f
    3. Format                                   : AVC
      $ Q8 }  z! v5 E8 _& U( q; X5 o
    4. Format/Info                              : Advanced Video Codec5 e: N1 r  H1 T
    5. Format profile                           : High@L4.1
      0 N6 x6 M, q% H- c
    6. Format settings, CABAC                   : Yes3 x- s$ D. ?' ]3 f
    7. Format settings, ReFrames                : 4 frames; M* Q0 U0 w' \- n! t9 I8 N
    8. Codec ID                                 : V_MPEG4/ISO/AVC% k4 B* M8 K  ~. @
    9. Duration                                 : 1h 58mn
      : o0 a1 I- V5 O* u# B
    10. Bit rate                                 : 8 900 Kbps( y" V# D4 \9 m" [# r8 r8 |
    11. Width                                    : 1 920 pixels; k( Z, V/ E% T4 o4 w( \% I' o$ B. ]. I. z
    12. Height                                   : 1 040 pixels# h! p3 Z5 g6 }" c  m& k' ^
    13. Display aspect ratio                     : 1.85:1
      $ @  p8 A5 @( ?+ i. D- N
    14. Frame rate mode                          : Constant4 p# I% k! T' ?
    15. Frame rate                               : 23.976 (24000/1001) fps2 r: L6 K" J, Y; b8 L9 A
    16. Color space                              : YUV
      , M/ S, e3 J# `
    17. Chroma subsampling                       : 4:2:06 z( V% ~, v3 w# z- Q8 C8 M
    18. Bit depth                                : 8 bits, K$ {6 ?6 o* P) z4 o
    19. Scan type                                : Progressive
      0 Z+ |& k/ o$ k) j, F+ T
    20. Bits/(Pixel*Frame)                       : 0.186- f7 U' w8 k6 \; u
    21. Stream size                              : 7.17 GiB (84%)3 K; j! g# E" k
    22. Title                                    : Train.to.Busan.2016.KOREAN.1080p.BluRay.x264.DTS-FGT
      ! K+ W" }; a* Z  J
    23. Writing library                          : x264 core 148 r2705 3f5ed56
      & q; Q9 d$ {9 Q+ s9 }
    24. Encoding settings                        : cabac=1 / ref=4 / deblock=1:0:0 / analyse=0x3:0x113 / me=umh / subme=8 / psy=1 / psy_rd=1.00:0.00 / mixed_ref=1 / me_range=16 / chroma_me=1 / trellis=1 / 8x8dct=1 / cqm=0 / deadzone=21,11 / fast_pskip=1 / chroma_qp_offset=-2 / threads=24 / lookahead_threads=4 / sliced_threads=0 / nr=0 / decimate=1 / interlaced=0 / bluray_compat=0 / constrained_intra=0 / bframes=3 / b_pyramid=2 / b_adapt=2 / b_bias=0 / direct=3 / weightb=1 / open_gop=0 / weightp=2 / keyint=240 / keyint_min=24 / scenecut=40 / intra_refresh=0 / rc_lookahead=50 / rc=2pass / mbtree=1 / bitrate=8900 / ratetol=1.0 / qcomp=0.60 / qpmin=0 / qpmax=69 / qpstep=4 / cplxblur=20.0 / qblur=0.5 / ip_ratio=1.40 / aq=1:1.00
      6 C' c% S' [+ f: v  u
    25. Language                                 : English
      8 w! z; G) n# j; l' P
    26. Default                                  : Yes7 ~9 ^9 r. }0 W- [
    27. Forced                                   : No+ f  k; \/ G; Z; \6 Q6 I
    28. . F3 V# _( q: l" W  J- T
    29. Audio
      & d$ F  ]* f- w. f+ h
    30. ID                                       : 2/ s/ Q# r7 |9 r. |/ G# L
    31. Format                                   : DTS
      " O! V. m7 ~* F! O# {7 H$ f* r# u
    32. Format/Info                              : Digital Theater Systems: d7 o4 W2 l/ |  w. e' c
    33. Mode                                     : 16  N+ c% J8 |9 g2 C/ }' u1 K' h
    34. Format settings, Endianness              : Big
      - W6 l( a( a8 Z
    35. Codec ID                                 : A_DTS
      + h8 y$ o# }* j# |2 f
    36. Duration                                 : 1h 58mn
      7 s/ r" s- c0 `
    37. Bit rate mode                            : Constant
        y5 y1 M1 l9 Y  }/ I1 A
    38. Bit rate                                 : 1 509 Kbps) x; s6 K: e: S5 E0 [! c2 B$ ]2 j7 [
    39. Channel(s)                               : 6 channels7 g7 A' c# {! e# Q& g# j& ?6 z
    40. Channel positions                        : Front: L C R, Side: L R, LFE: d+ x" f  d2 z: w8 D, {9 N" x. P
    41. Sampling rate                            : 48.0 KHz
      7 e" J4 n/ j; Q8 ^( R5 U$ _8 q
    42. Frame rate                               : 93.750 fps (512 spf)
      6 i$ @- D1 u1 B7 c& z) i1 H
    43. Bit depth                                : 24 bits
      ! e/ a% N9 N; t1 o$ b
    44. Compression mode                         : Lossy
      2 k1 _* ^) g" v% b9 s
    45. Stream size                              : 1.25 GiB (14%)
      0 I8 w6 f0 ^! k
    46. Title                                    : Train.to.Busan.2016.KOREAN.1080p.BluRay.x264.DTS-FGT
      2 F( G/ x6 a6 Q
    47. Language                                 : Korean
      * v! g1 ], V, N- _
    48. Default                                  : Yes2 ~9 R& z, J8 B! m; e" `- d8 X! x
    49. Forced                                   : No
      + y  ~; N9 f& G4 J1 ?' e. ]* S

    50. ; _" c5 m! h- x+ K
    51. Text7 Y3 h* a' ~! K: c. r
    52. ID                                       : 3- _. w- n7 e3 B4 z" }* Z
    53. Format                                   : UTF-85 Q; m5 w7 Y5 G7 ^
    54. Codec ID                                 : S_TEXT/UTF8
      7 @9 ^' B5 W% m& R4 `( @* Z
    55. Codec ID/Info                            : UTF-8 Plain Text
      8 [; _# [; x+ g0 k
    56. Language                                 : English% _) e1 {7 `" j* E3 i. o3 J" r4 E
    57. Default                                  : Yes
      : {% F4 K3 A5 Q
    58. Forced                                   : Yes
      % M( m4 ]; m( J
    59. 2 F8 r) `: A! d
    60. Menu) x- X6 E. y) H9 A, {: t
    61. 00:00:00.000                             : en:00:00:00.000: J, F9 `& x) L3 S6 S% T
    62. 00:11:02.537                             : en:00:11:02.537; h8 K$ O! E& w! @; _* j" W
    63. 00:19:35.216                             : en:00:19:35.216
      ' P/ ^( |" p) I3 z, |. q. H0 s
    64. 00:29:38.443                             : en:00:29:38.443
      " x( _. {% F3 _
    65. 00:39:13.518                             : en:00:39:13.518
      ! b7 K% ~% k" F" M+ j5 T, q: Y$ x
    66. 00:51:01.850                             : en:00:51:01.850
      . f% a& a/ y' a, S
    67. 00:59:30.025                             : en:00:59:30.025/ J! R) B; k, U# o
    68. 01:08:15.091                             : en:01:08:15.091
      . S$ h/ H5 d: V- G
    69. 01:20:56.060                             : en:01:20:56.060
      9 \- Z# S7 I3 ]8 w  D5 w
    70. 01:29:58.268                             : en:01:29:58.268
        I% m! H& ?, S+ E
    71. 01:38:03.544                             : en:01:38:03.544
      9 j: S% L- {- ?) s# B
    72. 01:49:07.583                             : en:01:49:07.583
      1 ]/ G; K* c3 P: n3 a3 g
    复制代码

    - _3 c" v) J6 f: {/ ~9 h  X-------------------------& g, R/ ^6 U1 X4 g$ r5 A
    ◎精彩剧照
    / N9 [- p% t" x" ]7 f7 B- o, @4 w4 T6 V4 ^
    -------------------------
    7 }$ {) f! o, y[以上高清电影剧照来自互联网,不代表此片高清剧照]" L8 e# q2 n) \5 e* _% z
    郑重声明:本站提供的所有高清电影作品均是在网上搜集,任何涉及商业盈利目的均不得使用,否则产生的一切后果将由您自己承担!本站将不对本站的任何内容负任何法律责任!该下载内容仅做宽带测试使用,请在下载后24小时内删除。请购买正
    版!
    5 M. I: I0 t3 H+ J-------------------------& b% R3 u0 ~! w% R5 S" M
    ◎种子下载地址
    ) k! s! h+ _7 I4 d+ O& A
    游客,如果您要查看本帖隐藏内容请回复
    : Z" ^/ z' Q% R9 ~( }

    ( q3 r& E+ V; L& k" c! E" V- `
    回复

    使用道具 举报

  • TA的每日心情
    开心
    7 天前
  • 签到天数: 326 天

    连续签到: 1 天

    [LV.8]以坛为家I

    发表于 2016-12-17 15:13:13 | 显示全部楼层
    这电影好像不错的。支持了。; K5 v1 @1 N: ], E& E
    回复 支持 反对

    使用道具 举报

  • TA的每日心情
    奋斗
    昨天 19:34
  • 签到天数: 130 天

    连续签到: 1 天

    [LV.7]常住居民III

    发表于 2016-12-17 15:13:15 | 显示全部楼层
    孔侑 饰)光鲜精干,却也是个重利轻义之徒。妻子为此与之决裂,女儿秀安(金秀安 饰)则对如此自私的父亲越来越失望,决定前往釜山和母亲生活。在秀安生日这天,石宇抽出时间陪伴女儿登上开往釜山的特快列车。而与此同时,城市四处出现了极为可疑的暴动事
    回复 支持 反对

    使用道具 举报

  • TA的每日心情
    开心
    昨天 16:42
  • 签到天数: 190 天

    连续签到: 1 天

    [LV.7]常住居民III

    发表于 2016-12-17 15:20:13 | 显示全部楼层
    好片值得收藏) K7 w& m, a6 l  [, p
    回复 支持 反对

    使用道具 举报

  • TA的每日心情
    难过
    6 天前
  • 签到天数: 380 天

    连续签到: 1 天

    [LV.9]以坛为家II

    发表于 2016-12-17 15:29:41 | 显示全部楼层
    这电影好像不错
    回复 支持 反对

    使用道具 举报

  • TA的每日心情
    开心
    2016-12-17 15:38
  • 签到天数: 13 天

    连续签到: 1 天

    [LV.3]偶尔看看II

    发表于 2016-12-17 15:39:31 | 显示全部楼层
    非常不错的 电影4 i4 R( B& U  n
    % d! i* _# A: |6 O% T. o6 Y
    回复 支持 反对

    使用道具 举报

  • TA的每日心情
    开心
    2017-1-13 16:42
  • 签到天数: 12 天

    连续签到: 1 天

    [LV.3]偶尔看看II

    发表于 2016-12-17 15:43:27 | 显示全部楼层
    好片子,下来看看,
    回复 支持 反对

    使用道具 举报

  • TA的每日心情
    开心
    前天 10:43
  • 签到天数: 585 天

    连续签到: 1 天

    [LV.9]以坛为家II

    发表于 2016-12-17 15:47:47 | 显示全部楼层
    gooooooooooooood
    # h; `# \: Y* Y& r1 z: m
    回复 支持 反对

    使用道具 举报

    您需要登录后才可以回帖 登录 | 立即加入

    本版积分规则

    您尚未登录,请登陆后浏览更精彩内容!
     立即加入
    找回密码

    QQ| 客服QQ:15608182|Archiver|手机版|小黑屋| 蓝光论坛  

    返回顶部
    x

    关注微信有机会赢取VIP资格

      

    Copyright © 2001-2013 Comsenz Inc.  Template by 蓝光电影论坛 All Rights Reserved.

    Powered by Discuz! X3.2( ICP备11019663号-4 )

    快速回复 返回顶部 返回列表