找回密码

蓝光电影论坛

查看: 6127|回复: 384

[其他] [2012][美国][纪录片][在结束的地方/车轮不息/哪是林道的尽头][1080P-7.95G][MKV]DTS

  [复制链接]
  • TA的每日心情
    开心
    2017-6-18 00:02
  • 签到天数: 64 天

    连续签到: 5 天

    [LV.6]常住居民II

    发表于 2016-10-24 20:13:28 | 显示全部楼层 |阅读模式

    马上注册,获取最新影视资讯,享用更多功能,让你轻松玩转高清论坛。

    您需要 登录 才可以下载或查看,没有帐号?立即加入

    x
    [2012][美国][纪录片][在结束的地方/车轮不息/哪是林道的尽头][1080P-7.95G][MKV]DTS
    ha.jpg
    ◎影片基本信息
    大小: 7.95G
    清晰度: 1080P
    视频: MKV
    豆瓣评分: 9.1
    导演: Jeremy Grant
    主演: Darren Berrecloth / Andreu Lacondeguy / James Doerfling / Cam Zink / Kurt Sorge
    类型: 剧情 / 纪录片 / 冒险 / 运动
    制片国家/地区: 美国 / 中国大陆 / 加拿大 / 尼泊尔 / 阿根廷
    语言: 英语
    片长: 81分钟
    又名: 在结束的地方 / 哪是林道的尽头
    影片:  Where.The.Trail.Ends.2012.1080p.BluRay.x264-XSTREEM

    ◎剧情简介
           2012年9月19日,全世界数一数二的自行车展INTER BIKE在美国的拉斯维加斯开幕。而一场酝酿已久的风暴在拉斯维加斯著名酒店The Palms Hotel附属的The Pearl Theatre影院爆发。在这个全世界山地车车迷的盛大日子,堪称自行车电影史上最大投资的电影《Where the trail ends》在这里举办了首映礼!
      2012红牛山地史诗大片《Where The Trail Ends Red Bull》 拍摄历时2年,在新疆戈壁、在犹他北部、在阿根廷卡法亚特、在尼泊尔秘境Mustang这些销魂的地方奔腾着。这是一部讲述世界顶级自由山地自行车手的电影,这些雄心勃勃的山地自行车手们在世界各地挑战各种险峻的地形,挑战自己的极限和大自然。
    -------------------------
    1. Video
    2. ID                                       : 1
    3. Format                                   : AVC
    4. Format/Info                              : Advanced Video Codec
    5. Format profile                           : High@L4.1
    6. Format settings, CABAC                   : Yes
    7. Format settings, ReFrames                : 4 frames
    8. Codec ID                                 : V_MPEG4/ISO/AVC
    9. Duration                                 : 1h 21mn
    10. Bit rate                                 : 13.3 Mbps
    11. Width                                    : 1 920 pixels
    12. Height                                   : 1 080 pixels
    13. Display aspect ratio                     : 16:9
    14. Frame rate mode                          : Constant
    15. Frame rate                               : 23.976 (24000/1001) fps
    16. Color space                              : YUV
    17. Chroma subsampling                       : 4:2:0
    18. Bit depth                                : 8 bits
    19. Scan type                                : Progressive
    20. Bits/(Pixel*Frame)                       : 0.267
    21. Stream size                              : 7.43 GiB (93%)
    22. Writing library                          : x264 core 129 r2230 1cffe9f
    23. Encoding settings                        : cabac=1 / ref=4 / deblock=1:0:0 / analyse=0x3:0x133 / me=umh / subme=7 / psy=1 / psy_rd=1.00:0.00 / mixed_ref=1 / me_range=16 / chroma_me=1 / trellis=1 / 8x8dct=1 / cqm=0 / deadzone=21,11 / fast_pskip=0 / chroma_qp_offset=-2 / threads=6 / lookahead_threads=1 / sliced_threads=0 / nr=0 / decimate=1 / interlaced=0 / bluray_compat=0 / constrained_intra=0 / bframes=3 / b_pyramid=2 / b_adapt=1 / b_bias=0 / direct=3 / weightb=1 / open_gop=0 / weightp=2 / keyint=240 / keyint_min=23 / scenecut=40 / intra_refresh=0 / rc_lookahead=40 / rc=2pass / mbtree=1 / bitrate=13271 / ratetol=1.0 / qcomp=0.60 / qpmin=10 / qpmax=51 / qpstep=4 / cplxblur=20.0 / qblur=0.5 / ip_ratio=1.40 / aq=1:1.00
    24. Language                                 : English
    25. Default                                  : Yes
    26. Forced                                   : No

    27. Audio
    28. ID                                       : 2
    29. Format                                   : AC-3
    30. Format/Info                              : Audio Coding 3
    31. Mode extension                           : CM (complete main)
    32. Format settings, Endianness              : Big
    33. Codec ID                                 : A_AC3
    34. Duration                                 : 1h 21mn
    35. Bit rate mode                            : Constant
    36. Bit rate                                 : 640 Kbps
    37. Channel(s)                               : 6 channels
    38. Channel positions                        : Front: L C R, Side: L R, LFE
    39. Sampling rate                            : 48.0 KHz
    40. Frame rate                               : 31.250 fps (1536 spf)
    41. Compression mode                         : Lossy
    42. Stream size                              : 375 MiB (5%)
    43. Language                                 : English
    44. Default                                  : Yes
    45. Forced                                   : No
    复制代码

    -------------------------
    ◎精彩剧照

    -------------------------
    [以上高清电影剧照来自互联网,不代表此片高清剧照]
    郑重声明:本站提供的所有高清电影作品均是在网上搜集,任何涉及商业盈利目的均不得使用,否则产生的一切后果将由您自己承担!本站将不对本站的任何内容负任何法律责任!该下载内容仅做宽带测试使用,请在下载后24小时内删除。请购买正
    版!
    -------------------------
    ◎种子下载地址
    游客,如果您要查看本帖隐藏内容请回复




    回复

    使用道具 举报

  • TA的每日心情
    擦汗
    半小时前
  • 签到天数: 280 天

    连续签到: 1 天

    [LV.8]以坛为家I

    发表于 2016-10-25 09:22:08 | 显示全部楼层
    好的,下来看看,谢谢了
    回复 支持 反对

    使用道具 举报

  • TA的每日心情
    开心
    2016-12-21 17:45
  • 签到天数: 329 天

    连续签到: 1 天

    [LV.8]以坛为家I

    发表于 2016-10-25 09:28:24 | 显示全部楼层
    的,下来看看,谢谢了
    [发帖际遇]: hxxxd 发帖时在路边捡到 1 蓝光币,偷偷放进了口袋. 幸运榜 / 衰神榜
    回复 支持 反对

    使用道具 举报

  • TA的每日心情
    开心
    1 小时前
  • 签到天数: 277 天

    连续签到: 26 天

    [LV.8]以坛为家I

    发表于 2016-10-25 09:42:48 | 显示全部楼层
    下来看看,谢谢
    回复 支持 反对

    使用道具 举报

  • TA的每日心情
    奋斗
    2017-1-13 19:41
  • 签到天数: 113 天

    连续签到: 1 天

    [LV.6]常住居民II

    发表于 2016-10-25 09:51:47 | 显示全部楼层
    下来看看,谢谢
    回复 支持 反对

    使用道具 举报

  • TA的每日心情
    奋斗
    7 天前
  • 签到天数: 607 天

    连续签到: 1 天

    [LV.9]以坛为家II

    发表于 2016-10-25 10:12:21 | 显示全部楼层
    谢谢楼主分享
    回复 支持 反对

    使用道具 举报

  • TA的每日心情
    开心
    6 小时前
  • 签到天数: 725 天

    连续签到: 2 天

    [LV.9]以坛为家II

    发表于 2016-10-25 10:14:52 | 显示全部楼层
    谢谢楼主分享
    [发帖际遇]: jacky088 乐于助人,奖励 1 蓝光币. 幸运榜 / 衰神榜
    回复 支持 反对

    使用道具 举报

  • TA的每日心情
    开心
    3 天前
  • 签到天数: 497 天

    连续签到: 4 天

    [LV.9]以坛为家II

    发表于 2016-10-25 10:19:12 | 显示全部楼层
    、、、、、、、、、、、、、、、、
    回复 支持 反对

    使用道具 举报

  • TA的每日心情
    开心
    4 天前
  • 签到天数: 197 天

    连续签到: 1 天

    [LV.7]常住居民III

    发表于 2016-10-25 10:34:02 | 显示全部楼层
    有不有中文字幕

    [发帖际遇]: wxjwxj281 乐于助人,奖励 2 蓝光币. 幸运榜 / 衰神榜
    回复 支持 反对

    使用道具 举报

    您需要登录后才可以回帖 登录 | 立即加入

    本版积分规则

    您尚未登录,请登陆后浏览更精彩内容!
     立即加入
    找回密码

    QQ| 客服QQ:15608182|如有侵权内容请联系:www1080net#qq.com 我们会及时删除|Archiver|手机版| 蓝光论坛  

    返回顶部
    x

    关注微信 不迷路

    Copyright © 2001-2013 Comsenz Inc.  Template by 蓝光电影论坛 All Rights Reserved.

    Powered by Discuz! X3.2( ICP备11019663号-4 )

    快速回复 返回顶部 返回列表