找回密码

蓝光电影论坛

查看: 1979|回复: 153

[喜剧] [2016][德国][喜剧][托尼·厄德曼/颠父人生][1080P-20.27G][MKV]DD5.1

  [复制链接]
  • TA的每日心情
    无聊
    2015-10-16 08:48
  • 签到天数: 5 天

    连续签到: 1 天

    [LV.2]偶尔看看I

     成长值: 6625

    发表于 2017-1-4 09:58:28 | 显示全部楼层 |阅读模式

    马上注册,获取最新影视资讯,享用更多功能,让你轻松玩转高清论坛。

    您需要 登录 才可以下载或查看,没有帐号?立即加入

    x
    [2016][德国][喜剧][托尼·厄德曼/颠父人生][1080P-20.27G][MKV]DD5.1
    + P3 l! Z0 v# f' H7 F8 i" |, _ b.jpg : J6 s# P! c2 a" \/ H
    ◎影片基本信息- ~& t$ f% j( ]
    大小: 20.27G% N3 T/ v* L  E
    清晰度: 1080P2 N$ J: D( R8 t" b! P8 X
    视频: MKV
    . b: {8 d+ H$ I/ Y% ?) }8 g  C* \豆瓣评分: 7.7
    & t5 `$ {% L6 F/ D. M导演: 玛伦·阿德; B* _# i7 Z/ s, M0 _
    编剧: 玛伦·阿德
    3 R  p# }/ s' p& [* F- Z! l主演: 彼得·西蒙尼舍克 / 桑德拉·惠勒 / 迈克尔·韦滕博恩 / 托马斯·洛伊布尔 / 特里斯坦·普特 / 哈德维奇·米尼斯 / 露西·拉塞尔 / 英格丽·比苏 / 弗拉德·伊凡诺夫 / 维多利亚·寇提亚斯 / 拉杜·班泽鲁 / 尼尔斯·伯曼 / 英格丽·伯克哈特
    : x2 y5 P, ]9 f$ `类型: 剧情 / 喜剧
    ; l, T7 p3 x. `+ R9 x制片国家/地区: 德国 / 奥地利3 ?. b2 b$ [( k: i1 \& a
    语言: 德语 / 英语 / 罗马尼亚语
    * l8 ?  i, \: S3 G9 z上映日期: 2016-05-14(戛纳电影节) / 2016-07-14(德国) / 2016-08-17(法国)
    3 o3 w3 y# T; m9 O( V7 ~! z. v片长: 162分钟
    + M5 w( @4 s) x9 A0 G, b又名: 颠父人生(台)6 p$ E5 E5 t  l# d
    影片: Toni.Erdmann.2016.GERMAN.1080p.BluRay.x264.DD5.1-EA

    7 {/ P* f8 v4 ^0 f+ c3 m; a# A9 f  d◎剧情简介
    4 A) U) m$ A8 c$ _+ R  r       Inès在一家位于布加勒斯特的德国大型企业工作。她的生活一直井然有序,直到她的父亲Winfried突然造访,并向她提出了这个问题:“你幸福吗?”面对这个根本无法回答的问题,她的生活开始出现一系列翻天覆地的变化。她并不喜欢自己的父亲,甚至有点以他为耻,但他却通过捏造一个名叫Toni Erdmann的诙谐人物,试图为她的生活找到一个方向。8 B6 V0 d8 r5 X. B+ u

    ! D( B% A& J; u5 ?0 X# V-------------------------6 m9 S1 ~: l6 T  i! |
    1. Video) h+ s" ^+ [/ V6 ?8 ?; A% N
    2. ID                                       : 1
      ' T+ K2 j3 A  W, s8 e
    3. Format                                   : AVC$ e! f# F. t! K
    4. Format/Info                              : Advanced Video Codec, f7 W) D9 H; L. ?6 g, e
    5. Format profile                           : [email protected]
      ' w0 }" }4 A+ Z, e7 T" h
    6. Format settings, CABAC                   : Yes2 ]6 x; d( R: ]/ h. g# }
    7. Format settings, ReFrames                : 4 frames" ?' @( @5 \8 v" c9 s9 Q
    8. Codec ID                                 : V_MPEG4/ISO/AVC
      ) K0 E# z4 ]! o  B  I6 b
    9. Duration                                 : 2h 42mn
      ' m7 \6 j' `: `- a$ a/ w
    10. Bit rate                                 : 17.2 Mbps& c/ Q* W  @# P' c8 ^& r7 q+ X1 C
    11. Width                                    : 1 920 pixels
      * N& z- v! Y  ^
    12. Height                                   : 1 040 pixels
      , m/ m' F0 Q4 U! W: K
    13. Display aspect ratio                     : 1.85:17 p$ G4 h' K$ N
    14. Frame rate mode                          : Constant/ D6 u" C- x: `3 H4 `
    15. Frame rate                               : 24.000 fps
      / ~6 v$ ]$ O0 T! s1 M5 f
    16. Color space                              : YUV
      ' x  K9 J0 e- A7 d1 J1 Y
    17. Chroma subsampling                       : 4:2:0+ W( \& v3 B* |$ _# g0 C
    18. Bit depth                                : 8 bits( A& I% `  V) N4 @6 M7 {. o1 D
    19. Scan type                                : Progressive
      6 g6 Y$ n3 b, V9 S: T" D
    20. Bits/(Pixel*Frame)                       : 0.358
      ) J" X7 }+ j+ F5 }
    21. Stream size                              : 19.4 GiB (96%)
      , K9 b+ M$ t# R( b
    22. Title                                    : -EA
      % j; F) _1 G8 r, D, J0 s3 u; s7 p
    23. Writing library                          : x264 core 148 r2744+55 950084e t_mod_Custom [[email protected] X86_64]* X! p0 z6 w$ g/ m
    24. Encoding settings                        : cabac=1 / ref=4 / deblock=1:-3:-3 / analyse=0x3:0x113 / me=umh / subme=10 / psy=1 / fade_compensate=0.00 / psy_rd=1.04:0.00 / mixed_ref=1 / me_range=32 / chroma_me=1 / trellis=2 / 8x8dct=1 / cqm=0 / deadzone=21,11 / fast_pskip=0 / chroma_qp_offset=-2 / threads=24 / lookahead_threads=4 / sliced_threads=0 / nr=0 / decimate=0 / interlaced=0 / bluray_compat=0 / constrained_intra=0 / fgo=0 / bframes=7 / b_pyramid=2 / b_adapt=2 / b_bias=0 / direct=3 / weightb=1 / open_gop=0 / weightp=2 / keyint=240 / keyint_min=23 / scenecut=40 / intra_refresh=0 / rc_lookahead=60 / rc=crf / mbtree=0 / crf=18.0000 / qcomp=0.75 / qpmin=0:0:0 / qpmax=69:69:69 / qpstep=4 / vbv_maxrate=62500 / vbv_bufsize=78125 / crf_max=0.0 / nal_hrd=none / filler=0 / ip_ratio=1.30 / pb_ratio=1.20 / aq=3:0.80 / aq-sensitivity=10.00 / aq-factor=1.00:1.00:1.00 / aq2=1:0.70 / aq2-sensitivity=15.00 / aq2-factor=1.00:1.00:1.00 / aq3=1:[0.70:0.70]:[0.70:0.70]:[0.70:0.70]:[0.70:0.70] / aq3-sensitivity=10.00 / aq3-factor=[1.00:1.00]:[1.00:1.00]:[1.00:1.00] / aq3-boundary=192:64:24& ]% b  @( P% H
    25. Language                                 : German
      9 o! l( f4 h' W" R8 n
    26. Default                                  : Yes' M; P& @  T7 {& |
    27. Forced                                   : No! L. F- R3 B. t! k9 O
    28. Color range                              : Limited
      4 H/ {" @3 F) I
    29. Color primaries                          : BT.709
      ) w7 h. k/ S8 |% |* F% F5 s! j
    30. Transfer characteristics                 : BT.7093 P8 J4 D) g! t) a
    31. Matrix coefficients                      : BT.709
      ) G8 b) {$ i8 A

    32. " P2 q. B3 T& N5 Q9 h3 X& P/ b
    33. Audio #1
      $ k" l  U1 k  W
    34. ID                                       : 2
      # R. X( Q/ D( g5 T; ~
    35. Format                                   : AC-39 o$ a: b, r3 n0 P# ?6 s
    36. Format/Info                              : Audio Coding 3+ J8 A' I; k/ Q* E
    37. Mode extension                           : CM (complete main)- r6 y" ?0 q( i+ b. A% b% d
    38. Format settings, Endianness              : Big. o$ P  ]* B6 B' K  F" |
    39. Codec ID                                 : A_AC39 K9 l7 G  S# \1 a  @2 q3 z& r
    40. Duration                                 : 2h 42mn# i! Q1 c# G+ C# r" g" w$ f5 a
    41. Bit rate mode                            : Constant
      1 Y1 t& e) h% d1 m" k
    42. Bit rate                                 : 640 Kbps. V+ ^0 D* e# C& h, H* `
    43. Channel(s)                               : 6 channels
      ) _/ Y8 H: s) q( f- N7 p
    44. Channel positions                        : Front: L C R, Side: L R, LFE' }& W5 Z/ w: u- g2 z3 H' G
    45. Sampling rate                            : 48.0 KHz) @( N6 d& j) b6 ?2 p
    46. Frame rate                               : 31.250 fps (1536 spf)
      + b0 D1 R  M6 ?7 E
    47. Compression mode                         : Lossy2 p7 D  M! [: E) E: r, |3 Q
    48. Stream size                              : 743 MiB (4%): @# E" f# D6 f( S7 c+ y2 ?4 G2 g
    49. Language                                 : German
        V3 k5 g! }4 b3 U4 a' s1 l8 ?! q
    50. Default                                  : Yes
      0 M4 G' `7 S# f+ p/ ]  y, q
    51. Forced                                   : Yes
      " g# d/ W. K- w+ P5 q+ Q
    52. 3 B* Q+ F  i6 G* E( H4 Z
    53. Audio #2
      & W$ f$ ?# A; r& z& i
    54. ID                                       : 3# V$ O3 E( A9 q% F2 h6 J
    55. Format                                   : AAC7 U. ~3 s  U+ G8 d) Y2 x# P
    56. Format/Info                              : Advanced Audio Codec
      ! R- R; g0 @/ d6 B6 \& L: U/ `
    57. Format profile                           : HE-AAC / LC" O9 Y+ ?& ~0 v5 r  ]- q( Z
    58. Codec ID                                 : A_AAC
      * s. q  w2 V7 d( I8 u3 ?
    59. Duration                                 : 2h 42mn( z1 E, L7 N' _
    60. Bit rate                                 : 64.0 Kbps: _( T+ h/ Q. i2 s
    61. Channel(s)                               : 2 channels
      ) f% f! _; J6 i! J9 e
    62. Channel positions                        : Front: L R/ \* E% p3 S3 d$ c) H5 h7 S  c
    63. Sampling rate                            : 48.0 KHz / 24.0 KHz7 I5 @1 J2 ~$ @: B  H  p0 L
    64. Frame rate                               : 23.438 fps (1024 spf)& Q+ V6 F' a" {  A# \$ h5 E
    65. Compression mode                         : Lossy
      ) Q$ o1 j6 d4 D+ M+ \! x! O5 R
    66. Delay relative to video                  : 31ms% S, Q8 v% F9 Z; x; Z. Q# h( J
    67. Stream size                              : 74.3 MiB (0%)
      : x& m, L$ w# w# `( u# T
    68. Title                                    : Commentary with M. Ade, S. Hüller, P. Simonischek
      ! W. a5 ~2 U4 }0 p! M; s
    69. Language                                 : German8 Y3 B# X) {2 Z- O" G: z8 e
    70. Default                                  : No0 X& R! x0 q2 W& O$ K
    71. Forced                                   : No+ W# }$ g" ?! f0 o; v
    72. ! i( H( ~6 J8 N& `. u% \
    73. Text #1, Q, N# h3 n' h8 Z5 k. `) a
    74. ID                                       : 4
      5 o7 _. a( A! s5 |& D2 [4 w5 M( C
    75. Format                                   : UTF-8
      * m6 \) z% u% Q* ?9 T: r
    76. Codec ID                                 : S_TEXT/UTF8
      ( B7 `1 T  W/ X6 r- ?: e
    77. Codec ID/Info                            : UTF-8 Plain Text
      0 g  m. q9 {$ Q: I5 \% v  S
    78. Duration                                 : 2h 40mn
      7 x5 q2 U" z! t* u3 Y9 Q1 d( x
    79. Bit rate                                 : 22 bps- M8 b1 r0 N/ D
    80. Count of elements                        : 869
      # [# u5 k' e& y
    81. Stream size                              : 26.6 KiB (0%)
        V0 ~9 D, a* M# B9 M+ x, g
    82. Title                                    : srt8 b& L5 G. R* d/ |4 U4 Z1 D' T* O
    83. Language                                 : English0 }) `+ F+ @+ d3 Y
    84. Default                                  : Yes* @3 p8 Q& D1 Z3 J4 G- ]7 b; C6 E! x9 W
    85. Forced                                   : Yes& F$ X3 e2 ~# v0 U! f) J: D4 g3 o
    86. 4 s7 G7 @  s8 O8 r/ @; c' _
    87. Text #2" k/ r, z2 a; I8 y
    88. ID                                       : 5
      , A) s, X" ^0 P: Y2 C1 Y
    89. Format                                   : PGS
      6 r, g7 f0 a; b4 p! I9 x
    90. Muxing mode                              : zlib) M( k9 m8 E9 N0 m- c
    91. Codec ID                                 : S_HDMV/PGS6 ^/ D7 ^" N  W! T% F+ d5 Z  c+ f
    92. Codec ID/Info                            : Picture based subtitle format used on BDs/HD-DVDs
      ) R4 r! I- C/ v
    93. Duration                                 : 2h 23mn& a* p4 Z# m* \
    94. Bit rate                                 : 6 306 bps+ C5 f& x5 h% q& R$ N
    95. Count of elements                        : 1024
      ; V* u# M2 Z8 N# H' i! a4 i
    96. Stream size                              : 6.47 MiB (0%)" V- _7 a' h/ y
    97. Title                                    : sup
      $ h) k4 D( M7 m- B$ o
    98. Language                                 : German) D; I! l6 v4 I4 k7 Y
    99. Default                                  : No8 j' K& d* U# f7 \; L# w
    100. Forced                                   : No* _$ h5 ]# T! u6 }
    101.   q9 r* m& i- a' q( U  z6 x$ S
    102. Text #3
      ; T6 w# E3 I+ B- Q* x2 H, H
    103. ID                                       : 6" A) t) T9 \1 t- y8 ]
    104. Format                                   : PGS
      2 K" |" H! j/ `( y; `; U
    105. Muxing mode                              : zlib$ v* P* y6 U/ p: C, K
    106. Codec ID                                 : S_HDMV/PGS- T; ^0 p& w; s( m; r1 X
    107. Codec ID/Info                            : Picture based subtitle format used on BDs/HD-DVDs( a0 }: a0 M$ B, l! ^3 L2 b9 ~
    108. Duration                                 : 2h 41mn
      5 g/ n8 p; L5 e, f
    109. Bit rate                                 : 19.9 Kbps
      ; Z- S/ w( C9 C, }( d( \
    110. Count of elements                        : 3626
      & b3 w, ?' Z# M: g; |8 d) O: g' s) v- f
    111. Stream size                              : 23.0 MiB (0%)
      * M) R, P! Q9 v0 r4 @/ {
    112. Title                                    : sup HoH$ {2 X6 e2 F8 \+ _" R; q
    113. Language                                 : German
      2 b, C0 O5 f3 ~$ a6 j+ g
    114. Default                                  : No! @& c5 h! o0 ]5 p; ]
    115. Forced                                   : No* V/ ]$ X, k! c1 E$ A

    116. ) Z0 J9 h5 U: k9 O( T. J6 a# B
    117. Menu #1. j& ?1 s  X/ n
    118. 00:00:00.000                             : en:00:00:00.000; c# i. W& c# ^$ R  T2 u1 ^- i
    119. 00:09:06.625                             : en:00:09:06.625# C) |- d" N0 F) h( |. o
    120. 00:18:02.917                             : en:00:18:02.917
      7 A  o8 `, B, J2 r
    121. 00:36:33.833                             : en:00:36:33.8331 E* }; a, [( |! r4 V* R
    122. 00:52:43.833                             : en:00:52:43.833& D+ o* g. w, k
    123. 01:11:32.167                             : en:01:11:32.1678 b& z0 J+ t# S6 H9 n1 D
    124. 01:36:39.917                             : en:01:36:39.917
      & b3 o- {" D( @
    125. 02:06:09.958                             : en:02:06:09.958) i3 a  y4 {$ V3 p3 g2 Z" o/ ]" n
    126. 02:27:28.958                             : en:02:27:28.9581 W, e7 ~  @  c( M) F+ S
    127. / y/ q" u1 S# O; z
    128. Menu #2! e" |6 z$ u; h; W( ~
    129. 00:00:00.097                             : en:00:00:00.097- \$ b2 p$ _/ S0 Q
    复制代码

    % V- s. V! O- _4 Y! t! `) ?' P-------------------------! H1 P" J! i. R
    ◎精彩剧照
    & A+ @( v: U; z1 ?  @* p) Z
    7 C  |" ]( z$ `- ]$ B& ?) p$ F-------------------------
    3 H: U  q1 \, s2 g  g, j0 U' r[以上高清电影剧照来自互联网,不代表此片高清剧照]
    0 m' P; [* o9 L8 _: j郑重声明:本站提供的所有高清电影作品均是在网上搜集,任何涉及商业盈利目的均不得使用,否则产生的一切后果将由您自己承担!本站将不对本站的任何内容负任何法律责任!该下载内容仅做宽带测试使用,请在下载后24小时内删除。请购买正
    版!0 n0 r+ P) R8 t9 `% Z+ a
    -------------------------: s3 u: {* T* c2 J
    ◎种子下载地址
    7 L4 F; a, C* c: l( Z5 P
    游客,如果您要查看本帖隐藏内容请回复

    % i3 h, l7 e7 d
    * H, Z- T& u2 A7 ]) Q
    回复

    使用道具 举报

  • TA的每日心情
    慵懒
    2017-1-6 08:33
  • 签到天数: 8 天

    连续签到: 4 天

    [LV.3]偶尔看看II

    发表于 2017-1-4 10:04:24 | 显示全部楼层
    谢谢谢谢
    1 r. T2 V; f" Q- R* M, }谢谢谢谢6 Y  m5 w0 ^& Q* |9 k) @9 h
    谢谢谢谢
    " C( Q& b$ @  t  k/ a" j
    回复 支持 反对

    使用道具 举报

  • TA的每日心情
    开心
    7 天前
  • 签到天数: 11 天

    连续签到: 1 天

    [LV.3]偶尔看看II

    发表于 2017-1-4 10:23:28 | 显示全部楼层
    多谢分享,人生平淡$ H- W1 k  R  J
    [发帖际遇]: imis041 发帖时在路边捡到 3 蓝光币,偷偷放进了口袋. 幸运榜 / 衰神榜
    回复 支持 反对

    使用道具 举报

  • TA的每日心情
    开心
    昨天 19:17
  • 签到天数: 24 天

    连续签到: 1 天

    [LV.4]偶尔看看III

    发表于 2017-1-4 10:28:03 | 显示全部楼层
    从简介上非常让我感兴趣 谢谢楼主
    4 D, h6 ]( f: G8 B, P- P" w; m. [; y$ ?! v7 r
    [发帖际遇]: freehytoo 乐于助人,奖励 2 蓝光币. 幸运榜 / 衰神榜
    回复 支持 反对

    使用道具 举报

  • TA的每日心情
    无聊
    2017-1-4 09:51
  • 签到天数: 1 天

    连续签到: 1 天

    [LV.1]初来乍到

    发表于 2017-1-4 10:29:05 | 显示全部楼层
    多谢分享,人生平淡" G# b
    回复 支持 反对

    使用道具 举报

  • TA的每日心情
    无聊
    2017-1-4 09:51
  • 签到天数: 1 天

    连续签到: 1 天

    [LV.1]初来乍到

    发表于 2017-1-4 10:35:13 | 显示全部楼层

    * x. y& O$ z$ Z下载来看看,感觉还可以
    [发帖际遇]: zjiewang 乐于助人,奖励 3 蓝光币. 幸运榜 / 衰神榜
    回复 支持 反对

    使用道具 举报

  • TA的每日心情
    开心
    昨天 08:53
  • 签到天数: 189 天

    连续签到: 1 天

    [LV.7]常住居民III

    发表于 2017-1-4 11:03:23 | 显示全部楼层
    感谢楼主分享。
    ' m7 [0 t7 k* T5 j2 U
    回复 支持 反对

    使用道具 举报

  • TA的每日心情
    开心
    2017-1-11 15:12
  • 签到天数: 115 天

    连续签到: 1 天

    [LV.6]常住居民II

    发表于 2017-1-4 11:26:59 | 显示全部楼层
    感谢楼主分享
    , S  S, A2 L8 O
    回复 支持 反对

    使用道具 举报

  • TA的每日心情
    郁闷
    6 天前
  • 签到天数: 71 天

    连续签到: 1 天

    [LV.6]常住居民II

    发表于 2017-1-4 11:40:35 | 显示全部楼层
    感谢楼主分享!!!
    回复 支持 反对

    使用道具 举报

    您需要登录后才可以回帖 登录 | 立即加入

    本版积分规则

    您尚未登录,请登陆后浏览更精彩内容!
     立即加入
    找回密码

    QQ| 客服QQ:15608182|Archiver|手机版|小黑屋| 蓝光论坛  

    返回顶部
    x

    关注微信账号赢取VIP资格

      

    Copyright © 2001-2013 Comsenz Inc.  Template by 蓝光电影论坛 All Rights Reserved.

    Powered by Discuz! X3.2( ICP备11019663号-4 )

    快速回复 返回顶部 返回列表