找回密码

蓝光电影论坛

查看: 2891|回复: 189

[喜剧] [2016][德国][喜剧][托尼·厄德曼/颠父人生][1080P-20.27G][MKV]DD5.1

  [复制链接]
  • TA的每日心情
    无聊
    2015-10-16 08:48
  • 签到天数: 5 天

    连续签到: 1 天

    [LV.2]偶尔看看I

     成长值: 8560

    发表于 2017-1-4 09:58:28 | 显示全部楼层 |阅读模式

    马上注册,获取最新影视资讯,享用更多功能,让你轻松玩转高清论坛。

    您需要 登录 才可以下载或查看,没有帐号?立即加入

    x
    [2016][德国][喜剧][托尼·厄德曼/颠父人生][1080P-20.27G][MKV]DD5.13 m# L* G2 a% v* N  w% ~- X8 {
    b.jpg
    # w5 A. ?; w4 Y- j& Z" N/ @◎影片基本信息
    8 F" v- n- \  [$ |; a, _' S" [5 q大小: 20.27G2 D+ t$ h+ W: j4 w
    清晰度: 1080P
    : N; j0 i" z, [视频: MKV
    8 p0 j9 s1 S: x9 z- a7 p7 E豆瓣评分: 7.75 y1 [# T. q: E! Z+ B6 W6 i5 N4 p5 m$ O
    导演: 玛伦·阿德
    9 v+ B! J: M- B5 e: f编剧: 玛伦·阿德1 R7 h( k: P2 ?1 ]* z: |
    主演: 彼得·西蒙尼舍克 / 桑德拉·惠勒 / 迈克尔·韦滕博恩 / 托马斯·洛伊布尔 / 特里斯坦·普特 / 哈德维奇·米尼斯 / 露西·拉塞尔 / 英格丽·比苏 / 弗拉德·伊凡诺夫 / 维多利亚·寇提亚斯 / 拉杜·班泽鲁 / 尼尔斯·伯曼 / 英格丽·伯克哈特
    ) d) y$ u0 d1 a& Z1 [. x" }类型: 剧情 / 喜剧! E. V! Q: S5 T& \4 M) T- E
    制片国家/地区: 德国 / 奥地利3 W: [% Q# Z6 j# L6 r# Z# C% W% H
    语言: 德语 / 英语 / 罗马尼亚语
    1 W4 h; m% P; G上映日期: 2016-05-14(戛纳电影节) / 2016-07-14(德国) / 2016-08-17(法国)8 {, z; a3 m: e6 j" d
    片长: 162分钟* G# Z& ~" p- ]/ N  _& C$ y* f
    又名: 颠父人生(台)
    0 E2 \% G* Y# O% n8 t# z影片: Toni.Erdmann.2016.GERMAN.1080p.BluRay.x264.DD5.1-EA

    1 Y4 w/ S/ c! }( l+ a◎剧情简介
    + K/ O* o' L8 i( _" M" Q) }9 g       Inès在一家位于布加勒斯特的德国大型企业工作。她的生活一直井然有序,直到她的父亲Winfried突然造访,并向她提出了这个问题:“你幸福吗?”面对这个根本无法回答的问题,她的生活开始出现一系列翻天覆地的变化。她并不喜欢自己的父亲,甚至有点以他为耻,但他却通过捏造一个名叫Toni Erdmann的诙谐人物,试图为她的生活找到一个方向。) J6 X& _% Y  I

    1 M. i; C  i1 x" h-------------------------
    % b- I) R4 Q; G$ d: R
    1. Video
      $ q, w# Q& s& ~, n& y
    2. ID                                       : 1  ?# X3 T( }' Z% H$ j
    3. Format                                   : AVC
      - w# }+ l* y$ O1 `; |) I
    4. Format/Info                              : Advanced Video Codec6 _; o, G4 W& _4 T9 |) d, |* @
    5. Format profile                           : [email protected]9 ~4 ~# c. r, C# n: [2 ]3 T" C6 f) g
    6. Format settings, CABAC                   : Yes
      ( R3 H0 j5 F- B: f* ]
    7. Format settings, ReFrames                : 4 frames- W+ M- \. X5 u; _$ q/ C# E
    8. Codec ID                                 : V_MPEG4/ISO/AVC7 W. G6 x3 ~" m3 D5 S
    9. Duration                                 : 2h 42mn* E3 u, k& u! y% a7 |' {/ |" a
    10. Bit rate                                 : 17.2 Mbps" o: e: a2 Q4 l* ]2 X: Y2 ~
    11. Width                                    : 1 920 pixels! c1 E9 c+ ~# X, X/ ]
    12. Height                                   : 1 040 pixels
      + n+ v, C. u& k0 `; L5 M) Z
    13. Display aspect ratio                     : 1.85:1
        l  d6 I- y* Y1 R- `
    14. Frame rate mode                          : Constant, Y- l8 V. y# Y5 D+ B! m5 P
    15. Frame rate                               : 24.000 fps& F$ Q. b( R# l& Z& b( R% F6 [7 g
    16. Color space                              : YUV6 l; ]; c8 S: c0 P5 g" B; U
    17. Chroma subsampling                       : 4:2:00 Z3 e$ {8 i0 ?5 l, F3 V0 V( ?
    18. Bit depth                                : 8 bits  q- M) q  i6 w. b0 {5 @$ o* O' s& u
    19. Scan type                                : Progressive
      $ W! J) A0 X3 c1 O, E5 k3 C* j( M
    20. Bits/(Pixel*Frame)                       : 0.358; z/ Y% ]  x4 C
    21. Stream size                              : 19.4 GiB (96%)/ ^% G& }9 {. P! I
    22. Title                                    : -EA
      6 r& L4 W7 z- J/ f# ^
    23. Writing library                          : x264 core 148 r2744+55 950084e t_mod_Custom [[email protected] X86_64]  b0 ~. {/ D% x; E3 a# D* _( x
    24. Encoding settings                        : cabac=1 / ref=4 / deblock=1:-3:-3 / analyse=0x3:0x113 / me=umh / subme=10 / psy=1 / fade_compensate=0.00 / psy_rd=1.04:0.00 / mixed_ref=1 / me_range=32 / chroma_me=1 / trellis=2 / 8x8dct=1 / cqm=0 / deadzone=21,11 / fast_pskip=0 / chroma_qp_offset=-2 / threads=24 / lookahead_threads=4 / sliced_threads=0 / nr=0 / decimate=0 / interlaced=0 / bluray_compat=0 / constrained_intra=0 / fgo=0 / bframes=7 / b_pyramid=2 / b_adapt=2 / b_bias=0 / direct=3 / weightb=1 / open_gop=0 / weightp=2 / keyint=240 / keyint_min=23 / scenecut=40 / intra_refresh=0 / rc_lookahead=60 / rc=crf / mbtree=0 / crf=18.0000 / qcomp=0.75 / qpmin=0:0:0 / qpmax=69:69:69 / qpstep=4 / vbv_maxrate=62500 / vbv_bufsize=78125 / crf_max=0.0 / nal_hrd=none / filler=0 / ip_ratio=1.30 / pb_ratio=1.20 / aq=3:0.80 / aq-sensitivity=10.00 / aq-factor=1.00:1.00:1.00 / aq2=1:0.70 / aq2-sensitivity=15.00 / aq2-factor=1.00:1.00:1.00 / aq3=1:[0.70:0.70]:[0.70:0.70]:[0.70:0.70]:[0.70:0.70] / aq3-sensitivity=10.00 / aq3-factor=[1.00:1.00]:[1.00:1.00]:[1.00:1.00] / aq3-boundary=192:64:24
      ) A# M/ Y' ]$ y8 h
    25. Language                                 : German% Y7 Z- ~( c$ V8 {
    26. Default                                  : Yes
      , T" s1 d' O2 p* y2 U. a
    27. Forced                                   : No
      7 E+ {5 S5 a  g8 ^! n0 A& m4 |
    28. Color range                              : Limited7 |3 ?4 C2 x" s
    29. Color primaries                          : BT.7097 ]: ~! A0 f' G$ J" Z+ J5 a
    30. Transfer characteristics                 : BT.709
      4 K$ l5 X! R7 P. j
    31. Matrix coefficients                      : BT.7093 B1 n; O& Q( f/ l( b9 N
    32. 9 M1 K' ~" \9 g
    33. Audio #1
      7 N% w* L( r% h, O$ C
    34. ID                                       : 2
      . C, H/ V4 Z' g/ z! v
    35. Format                                   : AC-36 D8 _( J( A9 q) H5 R) v) H" \
    36. Format/Info                              : Audio Coding 3  W3 R) w& }% [$ c' ?9 _
    37. Mode extension                           : CM (complete main). W1 R5 M" V: b" N3 f* o
    38. Format settings, Endianness              : Big" D9 Z6 g- _1 t
    39. Codec ID                                 : A_AC3, H3 I9 D( L' X( f4 Z0 e8 M
    40. Duration                                 : 2h 42mn
      ! d3 P- J9 o2 w5 n, h3 v
    41. Bit rate mode                            : Constant
      2 l0 h3 `- W+ @7 w0 t' E5 p, Z
    42. Bit rate                                 : 640 Kbps
      * u0 j8 M5 e$ L# J' I  G
    43. Channel(s)                               : 6 channels
      5 L; x! W4 v1 e$ I5 r
    44. Channel positions                        : Front: L C R, Side: L R, LFE' V0 b: W+ |2 f+ b# x7 U6 @8 o
    45. Sampling rate                            : 48.0 KHz
      ( f3 d" {5 ^( z& z& S2 A( w; Z
    46. Frame rate                               : 31.250 fps (1536 spf)
      5 q8 b! u6 i+ j9 q- h/ h
    47. Compression mode                         : Lossy6 [! T6 v9 k% J1 w
    48. Stream size                              : 743 MiB (4%)
      ! |% i1 ?( p; ]# a
    49. Language                                 : German/ L, }( U  w& U7 p6 v
    50. Default                                  : Yes  |+ T9 S5 }$ A$ y/ U5 d5 l
    51. Forced                                   : Yes* F4 n/ k2 P8 }9 j* }, u

    52. ! C2 `' n  {1 o$ X5 q
    53. Audio #2
      * B) I8 b1 Z+ X/ L2 r& r7 S6 A+ C
    54. ID                                       : 3
      & W. F5 R5 H' Q9 W4 [  S4 E. f# ]7 I% ?
    55. Format                                   : AAC
      2 h/ x9 O( h: D
    56. Format/Info                              : Advanced Audio Codec; N2 g9 [7 T' R0 C& f
    57. Format profile                           : HE-AAC / LC% _! W. {; h4 i4 ^& g+ Q) y3 O5 H
    58. Codec ID                                 : A_AAC' _- w& L" X" I, _5 T3 d
    59. Duration                                 : 2h 42mn
      / J+ s5 M: q  A2 T+ ]
    60. Bit rate                                 : 64.0 Kbps2 a1 f$ k# \( z$ x" ?0 R  r8 r: N
    61. Channel(s)                               : 2 channels! @4 ^8 M; l8 g7 z5 z; g: H
    62. Channel positions                        : Front: L R
      4 p" l2 Z! l0 l; a$ l
    63. Sampling rate                            : 48.0 KHz / 24.0 KHz
      ' J9 s+ Y2 [5 z
    64. Frame rate                               : 23.438 fps (1024 spf)5 Y* O7 J' L7 q6 K5 W1 l
    65. Compression mode                         : Lossy3 q2 X3 b% e# y0 X
    66. Delay relative to video                  : 31ms" U! k- I6 Z) t1 t8 z
    67. Stream size                              : 74.3 MiB (0%)/ H# }8 S$ X) |6 C, u. u
    68. Title                                    : Commentary with M. Ade, S. Hüller, P. Simonischek) c) w3 v: R: [8 U$ ^7 C4 s
    69. Language                                 : German- K& b5 ]) Z' X1 N
    70. Default                                  : No( M: [% ]/ T% n! q/ B9 o) d
    71. Forced                                   : No
      2 T; e6 ~9 y7 |
    72. " E* W  u- a" Z4 r/ D; E: }, L3 |
    73. Text #1
      2 Z, }* @/ u8 `# R
    74. ID                                       : 4$ ]2 S! X7 L7 L! a% N
    75. Format                                   : UTF-8
      2 r/ I8 g7 u" A2 B7 N
    76. Codec ID                                 : S_TEXT/UTF8
        S1 P% p6 ]( l$ F
    77. Codec ID/Info                            : UTF-8 Plain Text
      0 Q) @% R! ~5 a/ b) }# u
    78. Duration                                 : 2h 40mn
      * b- a: p. a3 ~9 p
    79. Bit rate                                 : 22 bps
      ! S; P% I0 P3 w3 P5 i/ C
    80. Count of elements                        : 869
      8 `1 c7 m6 u! a. |; m, B5 n' u7 @
    81. Stream size                              : 26.6 KiB (0%)- l; m/ N7 H2 r) l; }+ u1 |
    82. Title                                    : srt" d; O0 f  Y$ w4 f" u3 R, o+ k
    83. Language                                 : English
      - |* R" i# _" D
    84. Default                                  : Yes
      & {% E- r/ |" `8 W
    85. Forced                                   : Yes
      ! [4 E2 \' X  c2 Y, q
    86. 5 m& I2 y$ r8 _6 }8 p3 v
    87. Text #26 ~1 n1 X6 c' ]2 i# h
    88. ID                                       : 5
      ( D- g0 F' h8 r1 d2 S! x
    89. Format                                   : PGS0 g# h. [7 {5 u
    90. Muxing mode                              : zlib$ `6 M1 a6 U+ a5 s; N
    91. Codec ID                                 : S_HDMV/PGS+ _9 x9 v9 W2 `3 h. @6 n0 Y8 k& _
    92. Codec ID/Info                            : Picture based subtitle format used on BDs/HD-DVDs
      % g4 y/ N+ h5 S2 p
    93. Duration                                 : 2h 23mn/ y8 @3 s1 J. I' c2 {: @5 Z
    94. Bit rate                                 : 6 306 bps
      : t& _9 |( I4 z
    95. Count of elements                        : 1024% ?, l& S0 z1 T
    96. Stream size                              : 6.47 MiB (0%)1 }# Z& i! e1 ^4 `- V) U6 ^" ?8 d
    97. Title                                    : sup/ ]9 r6 b! C) G. \# \
    98. Language                                 : German
      8 n+ r7 b8 W" P$ J/ `/ ^: M7 N
    99. Default                                  : No
      ) f. h+ l1 I; r" p2 e, N
    100. Forced                                   : No) T! I; a, b7 t9 v
    101. 3 {3 ~7 X; o( a0 o" q! p
    102. Text #3# `6 l/ {5 Q; R! @$ j
    103. ID                                       : 6
      + B/ \/ ~6 K  E2 M7 K( v3 e; N
    104. Format                                   : PGS
      $ e" k! Y" I( g, W  Y8 E
    105. Muxing mode                              : zlib0 L8 U# P8 o/ P+ E5 i
    106. Codec ID                                 : S_HDMV/PGS% u1 o. z! _: [) v
    107. Codec ID/Info                            : Picture based subtitle format used on BDs/HD-DVDs
      6 W) m2 k$ C/ v7 ]
    108. Duration                                 : 2h 41mn* u" \; m+ M2 \* R8 r2 \$ k  R/ N
    109. Bit rate                                 : 19.9 Kbps
      ) I/ G8 ]+ a# L4 O0 `$ [
    110. Count of elements                        : 3626
      ; k8 m; M2 _9 E- ?) |4 Y/ ]. m
    111. Stream size                              : 23.0 MiB (0%)* x1 E6 U( T, |" P  }
    112. Title                                    : sup HoH5 G! L) _7 |4 R/ n3 e( y
    113. Language                                 : German& `9 [: e$ X2 g+ T! ^4 S! @  {
    114. Default                                  : No
      6 E& I% h: b, \3 Q' h
    115. Forced                                   : No
      : P( Z: K8 C6 N
    116. 7 g, s; b! L9 W1 f' a0 C
    117. Menu #1+ c) J. M  y, g  Q
    118. 00:00:00.000                             : en:00:00:00.000
      % D3 R1 a6 n# z* v4 n! ~
    119. 00:09:06.625                             : en:00:09:06.625# l$ N0 D! Y" q+ I
    120. 00:18:02.917                             : en:00:18:02.917) b/ ~5 r1 n# P2 a- O
    121. 00:36:33.833                             : en:00:36:33.833
      7 m8 X. i5 x3 L1 n) Z# S
    122. 00:52:43.833                             : en:00:52:43.833
      6 I1 R8 f4 @5 g/ w9 [# |  b: c
    123. 01:11:32.167                             : en:01:11:32.167
      : _9 k8 A$ G; z5 p3 J
    124. 01:36:39.917                             : en:01:36:39.9174 c" J4 p+ X- W1 ~2 l
    125. 02:06:09.958                             : en:02:06:09.9580 S* v, \, g4 _$ f
    126. 02:27:28.958                             : en:02:27:28.958
      8 P  X: V  r' f+ o
    127. 2 T- I8 w1 I/ i" c7 Z
    128. Menu #24 ?5 h- C0 k4 @8 a$ F
    129. 00:00:00.097                             : en:00:00:00.097
      1 C  t* a) P& ~$ e+ n$ N3 N% |
    复制代码
    - U! s2 P4 K$ N# ~: ?
    -------------------------; |8 E+ `$ z+ l
    ◎精彩剧照
    7 E" e  x, S! h  \3 C9 U: u- {9 ?% v' d) M; r8 ^+ o% G
    -------------------------
    " N0 z4 p; x% S  K( Y/ w, U[以上高清电影剧照来自互联网,不代表此片高清剧照]
    7 a. [+ b6 S. Z# Z+ Z郑重声明:本站提供的所有高清电影作品均是在网上搜集,任何涉及商业盈利目的均不得使用,否则产生的一切后果将由您自己承担!本站将不对本站的任何内容负任何法律责任!该下载内容仅做宽带测试使用,请在下载后24小时内删除。请购买正
    版!
    1 Z( m: g4 B1 `* O) b! n/ E- J& K8 E-------------------------
    2 x( Q+ m$ b+ n' q4 X( K◎种子下载地址
    * e7 c  u  I; b' W$ Z# ?
    游客,如果您要查看本帖隐藏内容请回复
      H' v/ D9 C; w1 v# r" I9 n
    ) Z5 {6 |. E# l+ v6 m
    回复

    使用道具 举报

  • TA的每日心情
    慵懒
    2017-1-6 08:33
  • 签到天数: 8 天

    连续签到: 4 天

    [LV.3]偶尔看看II

    发表于 2017-1-4 10:04:24 | 显示全部楼层
    谢谢谢谢
    ; h' q( n8 e3 K! F& |- I3 c( I谢谢谢谢" u$ O/ K  m+ E# |
    谢谢谢谢
    # E3 W0 A: a7 u" E4 M) R1 o" x/ O
    回复 支持 反对

    使用道具 举报

  • TA的每日心情
    开心
    4 天前
  • 签到天数: 32 天

    连续签到: 1 天

    [LV.5]常住居民I

    发表于 2017-1-4 10:23:28 | 显示全部楼层
    多谢分享,人生平淡2 `$ e( w7 h! X/ m3 d
    [发帖际遇]: imis041 发帖时在路边捡到 3 蓝光币,偷偷放进了口袋. 幸运榜 / 衰神榜
    回复 支持 反对

    使用道具 举报

  • TA的每日心情
    奋斗
    昨天 12:24
  • 签到天数: 47 天

    连续签到: 2 天

    [LV.5]常住居民I

    发表于 2017-1-4 10:28:03 | 显示全部楼层
    从简介上非常让我感兴趣 谢谢楼主- t9 ~  P) V2 S6 \

    4 A3 a9 _  w4 Y! g* L
    [发帖际遇]: freehytoo 乐于助人,奖励 2 蓝光币. 幸运榜 / 衰神榜
    回复 支持 反对

    使用道具 举报

  • TA的每日心情
    无聊
    2017-1-4 09:51
  • 签到天数: 1 天

    连续签到: 1 天

    [LV.1]初来乍到

    发表于 2017-1-4 10:29:05 | 显示全部楼层
    多谢分享,人生平淡" G# b
    回复 支持 反对

    使用道具 举报

  • TA的每日心情
    无聊
    2017-1-4 09:51
  • 签到天数: 1 天

    连续签到: 1 天

    [LV.1]初来乍到

    发表于 2017-1-4 10:35:13 | 显示全部楼层
    - X8 y' l, Y/ ]6 H$ A; o
    下载来看看,感觉还可以
    [发帖际遇]: zjiewang 乐于助人,奖励 3 蓝光币. 幸运榜 / 衰神榜
    回复 支持 反对

    使用道具 举报

  • TA的每日心情
    慵懒
    2017-5-9 08:51
  • 签到天数: 235 天

    连续签到: 2 天

    [LV.7]常住居民III

    发表于 2017-1-4 11:03:23 | 显示全部楼层
    感谢楼主分享。" }; R/ A! ], b
    回复 支持 反对

    使用道具 举报

  • TA的每日心情
    开心
    昨天 21:29
  • 签到天数: 160 天

    连续签到: 2 天

    [LV.7]常住居民III

    发表于 2017-1-4 11:26:59 | 显示全部楼层
    感谢楼主分享
    9 x: ~. _& j7 G- v
    回复 支持 反对

    使用道具 举报

  • TA的每日心情
    郁闷
    2017-5-9 15:14
  • 签到天数: 85 天

    连续签到: 2 天

    [LV.6]常住居民II

    发表于 2017-1-4 11:40:35 | 显示全部楼层
    感谢楼主分享!!!
    回复 支持 反对

    使用道具 举报

    您需要登录后才可以回帖 登录 | 立即加入

    本版积分规则

    您尚未登录,请登陆后浏览更精彩内容!
     立即加入
    找回密码

    QQ| 客服QQ:15608182|Archiver|手机版|小黑屋| 蓝光论坛  

    返回顶部
    x

    关注微信有机会赢取VIP资格

      

    Copyright © 2001-2013 Comsenz Inc.  Template by 蓝光电影论坛 All Rights Reserved.

    Powered by Discuz! X3.2( ICP备11019663号-4 )

    快速回复 返回顶部 返回列表