找回密码

蓝光电影论坛

查看: 2642|回复: 183

[喜剧] [2016][德国][喜剧][托尼·厄德曼/颠父人生][1080P-20.27G][MKV]DD5.1

  [复制链接]
  • TA的每日心情
    无聊
    2015-10-16 08:48
  • 签到天数: 5 天

    连续签到: 1 天

    [LV.2]偶尔看看I

     成长值: 7645

    发表于 2017-1-4 09:58:28 | 显示全部楼层 |阅读模式

    马上注册,获取最新影视资讯,享用更多功能,让你轻松玩转高清论坛。

    您需要 登录 才可以下载或查看,没有帐号?立即加入

    x
    [2016][德国][喜剧][托尼·厄德曼/颠父人生][1080P-20.27G][MKV]DD5.1
    2 L& ~; F# N, g% g; H1 F b.jpg , b8 k3 d9 }& E1 _0 K6 ]6 _
    ◎影片基本信息
    ' S! L( p  y; O2 T1 V4 d- ]大小: 20.27G- n1 S: ?9 i: v" J9 V9 H
    清晰度: 1080P& l2 d) H* \2 H( f7 u8 {* E+ g% C
    视频: MKV
    9 w1 |8 _* u' ~0 e' S3 ~( f豆瓣评分: 7.7
    9 L) W' X1 N5 y  A; d导演: 玛伦·阿德! p$ u0 s6 T4 c* ]) r6 h8 m3 _% r- \
    编剧: 玛伦·阿德
    8 b; D6 j' P  V/ [7 t2 R主演: 彼得·西蒙尼舍克 / 桑德拉·惠勒 / 迈克尔·韦滕博恩 / 托马斯·洛伊布尔 / 特里斯坦·普特 / 哈德维奇·米尼斯 / 露西·拉塞尔 / 英格丽·比苏 / 弗拉德·伊凡诺夫 / 维多利亚·寇提亚斯 / 拉杜·班泽鲁 / 尼尔斯·伯曼 / 英格丽·伯克哈特
    + T/ A4 l2 r8 l) W8 i( J2 w类型: 剧情 / 喜剧
    8 Q: e/ }3 q4 ]0 X! ]  `制片国家/地区: 德国 / 奥地利0 g( P+ n3 [$ x
    语言: 德语 / 英语 / 罗马尼亚语
    $ b; W3 e* `/ V/ y5 A上映日期: 2016-05-14(戛纳电影节) / 2016-07-14(德国) / 2016-08-17(法国)- v& b% ?, P1 ^
    片长: 162分钟  r% J6 k* R8 Q% B6 H( S2 `
    又名: 颠父人生(台)- i. j: \/ A( y0 r' Y
    影片: Toni.Erdmann.2016.GERMAN.1080p.BluRay.x264.DD5.1-EA
      N  s. T) o* s7 p
    ◎剧情简介$ F% r0 Z- Z- c. X& a
           Inès在一家位于布加勒斯特的德国大型企业工作。她的生活一直井然有序,直到她的父亲Winfried突然造访,并向她提出了这个问题:“你幸福吗?”面对这个根本无法回答的问题,她的生活开始出现一系列翻天覆地的变化。她并不喜欢自己的父亲,甚至有点以他为耻,但他却通过捏造一个名叫Toni Erdmann的诙谐人物,试图为她的生活找到一个方向。2 ?2 l; T' Q& P! |$ N' q

    / o$ _$ S% z! h1 J5 \-------------------------: S1 Q2 p+ Y: p; J5 z+ S: b, Q) `/ C: c
    1. Video% Y* S$ b9 E5 R% |' T1 I- G, x
    2. ID                                       : 17 S/ y& E1 X8 T+ d/ L$ g
    3. Format                                   : AVC! k6 {7 g* E) I
    4. Format/Info                              : Advanced Video Codec
      # t& Z% W, }; k  B6 X# O
    5. Format profile                           : [email protected]
      + J4 ^1 {4 L( v9 y% {6 Q6 d$ F. o+ Z
    6. Format settings, CABAC                   : Yes
      1 Q. `; B; N. |: J4 |6 W" L# g
    7. Format settings, ReFrames                : 4 frames
      # n7 A+ O; Z: U7 E
    8. Codec ID                                 : V_MPEG4/ISO/AVC9 Y  f# X9 c# J
    9. Duration                                 : 2h 42mn; h4 Y. T( O. u; a$ E& r; ^
    10. Bit rate                                 : 17.2 Mbps! R/ _( r8 k1 q4 l& u+ v
    11. Width                                    : 1 920 pixels
      2 N9 f7 v* U: e; K$ U4 `* e8 S* v
    12. Height                                   : 1 040 pixels
      - d3 \, P5 R# A6 ^
    13. Display aspect ratio                     : 1.85:1
      - F5 \( f( f/ J8 O8 F* n4 G! U
    14. Frame rate mode                          : Constant
      $ A5 |7 d' C1 E. T/ x. k  e; ?
    15. Frame rate                               : 24.000 fps+ B8 p: [" ^/ m9 D' u
    16. Color space                              : YUV: {* Y' X3 H1 L: ?( r/ K& Z$ y3 x
    17. Chroma subsampling                       : 4:2:0
      ( }: Z& J* b  t( e
    18. Bit depth                                : 8 bits
      " ]2 w  B1 z) H% H* n
    19. Scan type                                : Progressive
      ) ?$ L$ j0 `: N5 P" ?
    20. Bits/(Pixel*Frame)                       : 0.358
      ( S) R/ c7 H. Y5 N  b
    21. Stream size                              : 19.4 GiB (96%); D: G$ a8 L3 G5 j: v1 H
    22. Title                                    : -EA% l+ m: {2 v! Y: t5 X
    23. Writing library                          : x264 core 148 r2744+55 950084e t_mod_Custom [[email protected] X86_64]% T9 `8 c( U8 n) W; z" g+ T3 r
    24. Encoding settings                        : cabac=1 / ref=4 / deblock=1:-3:-3 / analyse=0x3:0x113 / me=umh / subme=10 / psy=1 / fade_compensate=0.00 / psy_rd=1.04:0.00 / mixed_ref=1 / me_range=32 / chroma_me=1 / trellis=2 / 8x8dct=1 / cqm=0 / deadzone=21,11 / fast_pskip=0 / chroma_qp_offset=-2 / threads=24 / lookahead_threads=4 / sliced_threads=0 / nr=0 / decimate=0 / interlaced=0 / bluray_compat=0 / constrained_intra=0 / fgo=0 / bframes=7 / b_pyramid=2 / b_adapt=2 / b_bias=0 / direct=3 / weightb=1 / open_gop=0 / weightp=2 / keyint=240 / keyint_min=23 / scenecut=40 / intra_refresh=0 / rc_lookahead=60 / rc=crf / mbtree=0 / crf=18.0000 / qcomp=0.75 / qpmin=0:0:0 / qpmax=69:69:69 / qpstep=4 / vbv_maxrate=62500 / vbv_bufsize=78125 / crf_max=0.0 / nal_hrd=none / filler=0 / ip_ratio=1.30 / pb_ratio=1.20 / aq=3:0.80 / aq-sensitivity=10.00 / aq-factor=1.00:1.00:1.00 / aq2=1:0.70 / aq2-sensitivity=15.00 / aq2-factor=1.00:1.00:1.00 / aq3=1:[0.70:0.70]:[0.70:0.70]:[0.70:0.70]:[0.70:0.70] / aq3-sensitivity=10.00 / aq3-factor=[1.00:1.00]:[1.00:1.00]:[1.00:1.00] / aq3-boundary=192:64:24
      1 `# j( B7 P$ ]- m) G) Q: q; E
    25. Language                                 : German# s0 O9 A1 Z$ E( q+ B' @
    26. Default                                  : Yes
      & ^( [2 A" k5 `! V/ Y( I
    27. Forced                                   : No
      ' M! ^' G/ {( g' o2 `
    28. Color range                              : Limited
      8 H4 s$ C8 b- i  ?7 |$ j7 P* }
    29. Color primaries                          : BT.709
      # I' R( A1 o" }5 Q+ B# J/ k
    30. Transfer characteristics                 : BT.709
      8 J0 ~: k5 ]* U' g6 m7 T# z
    31. Matrix coefficients                      : BT.709
      4 q! p$ v  ?) i+ `) D, w1 ^+ c  J

    32. 5 a$ s! M: A, o
    33. Audio #18 T3 o0 q7 f+ r  {2 r' t
    34. ID                                       : 2
      ' a7 N- ]6 ^  z4 \
    35. Format                                   : AC-3
      & \' `% P2 o% O) J5 a
    36. Format/Info                              : Audio Coding 3
      9 J: v2 e- p' u4 J$ D7 @, U/ w
    37. Mode extension                           : CM (complete main)
      9 N4 s+ m( L2 C2 d2 X* v$ b5 `* T; X
    38. Format settings, Endianness              : Big. B, k, V, _$ j  K+ z' E; h! z2 D+ J
    39. Codec ID                                 : A_AC31 ]1 X3 }- H$ U2 v+ X2 W# T/ X
    40. Duration                                 : 2h 42mn# d4 s( M4 I9 o# T4 d
    41. Bit rate mode                            : Constant3 |/ T2 U6 |) h
    42. Bit rate                                 : 640 Kbps' L/ l$ ~& T. l3 _
    43. Channel(s)                               : 6 channels
      1 `( T& u3 m) `
    44. Channel positions                        : Front: L C R, Side: L R, LFE
      " b- @& a# X0 g* A& i9 V3 Y2 \) s
    45. Sampling rate                            : 48.0 KHz
      5 I) N6 A" s9 q# V
    46. Frame rate                               : 31.250 fps (1536 spf)3 }( U- D. j* C, p6 o0 p$ W; X
    47. Compression mode                         : Lossy- m4 Z2 }/ p8 i3 }0 o0 y3 y
    48. Stream size                              : 743 MiB (4%)
      6 T, M# c9 K* p: x& _! J
    49. Language                                 : German8 o% b+ D. J6 I3 `; y
    50. Default                                  : Yes9 R* y4 d( ?# s9 G# Y# l+ S& p
    51. Forced                                   : Yes2 N) ?5 t& @: W  _# l* G

    52. ! t* `3 Q* g* c0 D
    53. Audio #2* }! V# R( j0 H7 ^* x
    54. ID                                       : 3
      * D' `1 x2 z7 M: d. q! b5 \. [
    55. Format                                   : AAC, w+ d9 _% }4 V3 c; f& Z# l! w
    56. Format/Info                              : Advanced Audio Codec. B$ j, ~% V+ [
    57. Format profile                           : HE-AAC / LC4 T- e4 e0 B& S: B9 j( O
    58. Codec ID                                 : A_AAC; |- D6 d( a0 y) a
    59. Duration                                 : 2h 42mn
      , o" ?! g% O0 ^8 b. }$ B" p4 i5 _& d( I
    60. Bit rate                                 : 64.0 Kbps4 X7 W% R7 y0 Z, u% }5 o
    61. Channel(s)                               : 2 channels
      8 M6 c3 V7 {+ }8 D, h# _
    62. Channel positions                        : Front: L R
      # ]$ t; B& M3 W4 B; a$ t
    63. Sampling rate                            : 48.0 KHz / 24.0 KHz
      7 X, t) v4 A: M) P1 ^$ t
    64. Frame rate                               : 23.438 fps (1024 spf)$ X& A( p3 ~+ \& r
    65. Compression mode                         : Lossy
      2 h! i* h3 [; N* ~' e  P2 P
    66. Delay relative to video                  : 31ms
      $ b: s2 \% W$ A5 z/ m& f
    67. Stream size                              : 74.3 MiB (0%)
      5 ]1 c$ n8 I4 S
    68. Title                                    : Commentary with M. Ade, S. Hüller, P. Simonischek
      ( g/ t  L8 F: M' v6 P' R
    69. Language                                 : German
      ) z  N! k! r& V( S
    70. Default                                  : No$ T8 a. R# ~) r$ c/ W
    71. Forced                                   : No
      # i. D, S6 h% C9 b: G2 i
    72.   Y3 k# C( E9 U7 g6 [) ^& r
    73. Text #1
      5 \+ E, ~# _9 K/ N( A6 Z- z
    74. ID                                       : 4+ |2 X2 x& `* r- |5 [4 K) g
    75. Format                                   : UTF-8
      9 L  q; w* i" n! V; g! g5 d
    76. Codec ID                                 : S_TEXT/UTF8
      + \& _# L2 W: k  p8 A
    77. Codec ID/Info                            : UTF-8 Plain Text
      / |0 x. C1 K0 F6 B' S: ]1 D* k  P, j
    78. Duration                                 : 2h 40mn4 i( T" g6 \6 e8 Q2 }  Y
    79. Bit rate                                 : 22 bps& _" B1 i! Y: m, j
    80. Count of elements                        : 869
      ) G9 \5 p) o$ ^" b7 m6 ?  [' {  m
    81. Stream size                              : 26.6 KiB (0%)3 m$ E( W5 g) y, d" A0 M) d3 D
    82. Title                                    : srt
      ! t6 }$ f) ~; z  V/ Y( a' }2 O4 `5 |6 {
    83. Language                                 : English
      * E1 g2 _5 @2 z" R8 B) ?
    84. Default                                  : Yes7 f5 p1 a3 d' A5 U  X1 N
    85. Forced                                   : Yes' z0 H1 z$ b1 F8 ]
    86. & ^1 Q  w1 b7 ]6 c
    87. Text #2: [1 p2 Y7 j1 ]# z+ S  _$ S
    88. ID                                       : 5, y  v: s% ~1 T3 \9 n; A5 J2 P; I
    89. Format                                   : PGS) V1 z* l2 G; E; C1 u4 A  o
    90. Muxing mode                              : zlib
      : ]  z. D! I" k
    91. Codec ID                                 : S_HDMV/PGS
      / B$ A( C* \! f1 |' @
    92. Codec ID/Info                            : Picture based subtitle format used on BDs/HD-DVDs
      + p( k- U2 k3 i
    93. Duration                                 : 2h 23mn2 o- c, U, e4 w; M4 s
    94. Bit rate                                 : 6 306 bps1 |5 B2 z$ r2 X3 U; V9 P# I
    95. Count of elements                        : 1024' Z8 ^7 k1 U; N* o
    96. Stream size                              : 6.47 MiB (0%)
      . a5 k$ o! O1 Y! S$ k
    97. Title                                    : sup
      , d! M( d7 {! W- M: H
    98. Language                                 : German
      : ~5 L  m# Y6 G  P
    99. Default                                  : No6 i) m. q  d: t+ l' s1 [6 G
    100. Forced                                   : No" z3 |1 [& |3 Z; P# C4 e7 m
    101. 4 A  Q6 \5 K( a6 H4 M. `" P
    102. Text #38 g) b$ h' {. k8 n9 q2 y2 }
    103. ID                                       : 60 d( M  E7 a! z& ^
    104. Format                                   : PGS( P8 c" V; g  m. G" V$ c: d' H
    105. Muxing mode                              : zlib9 v) @/ D5 e( Z- M/ h" z8 X$ n
    106. Codec ID                                 : S_HDMV/PGS$ X& d2 }7 T7 \. k
    107. Codec ID/Info                            : Picture based subtitle format used on BDs/HD-DVDs
      # M, Z: m) A: W% N/ V
    108. Duration                                 : 2h 41mn
      ! K7 Y9 o7 o% B) S
    109. Bit rate                                 : 19.9 Kbps% c! ~2 O5 l5 z/ `8 @3 o; o( [
    110. Count of elements                        : 3626
      % b, t, y# _& K! ~  O& D5 Y
    111. Stream size                              : 23.0 MiB (0%)7 R6 Z2 h3 n/ y6 b
    112. Title                                    : sup HoH0 J- w3 ~& c1 s" r. y" C
    113. Language                                 : German! l/ q+ F( j3 _) H8 a" w5 n& R
    114. Default                                  : No, O! G+ a9 D7 x( \( E. o2 J
    115. Forced                                   : No) C2 Y/ [# Z. X3 k# w. K+ V

    116. 0 i$ v+ I* U0 E. d+ C) X
    117. Menu #1% C# I7 `6 a! Q. v( @  @0 Z4 V
    118. 00:00:00.000                             : en:00:00:00.000, }, E, R  Y+ I! c  p3 \) B+ G
    119. 00:09:06.625                             : en:00:09:06.625
      ) M( o& s- q+ B4 B# ~3 j! `* |2 g
    120. 00:18:02.917                             : en:00:18:02.917) z; t$ ~6 s* Y! Q! C0 b7 `
    121. 00:36:33.833                             : en:00:36:33.833
      5 ~! Z/ v' R* t& W
    122. 00:52:43.833                             : en:00:52:43.833
      3 }8 ^+ o* H' ?: v5 K3 z! k
    123. 01:11:32.167                             : en:01:11:32.1678 q! T1 h* d  c. _; x# W0 [4 i4 `# U
    124. 01:36:39.917                             : en:01:36:39.917& h! @( n& c  J0 [/ D1 @9 J
    125. 02:06:09.958                             : en:02:06:09.958. V7 a' |% K8 ]2 |# D8 D4 M7 \
    126. 02:27:28.958                             : en:02:27:28.9589 `/ l$ K$ N# p/ }" g) \

    127. , m: O/ Q% j& B3 |
    128. Menu #29 w. q$ V3 X- \' K( Q+ p( r1 U6 z
    129. 00:00:00.097                             : en:00:00:00.097
        l! @1 `1 Q/ I6 d8 _" p4 K$ s
    复制代码

    - ~& R4 i  Y2 {. S-------------------------
    / [9 |/ i$ H9 g◎精彩剧照
    5 {/ S; ~( c) f5 J( L/ D
    - I  K$ d4 r3 t- ~; s-------------------------) d8 g6 S# R/ p# ~/ {/ B
    [以上高清电影剧照来自互联网,不代表此片高清剧照]( A4 R( e+ y' e
    郑重声明:本站提供的所有高清电影作品均是在网上搜集,任何涉及商业盈利目的均不得使用,否则产生的一切后果将由您自己承担!本站将不对本站的任何内容负任何法律责任!该下载内容仅做宽带测试使用,请在下载后24小时内删除。请购买正
    版!. D+ b6 Y+ f$ S0 D, C6 g
    -------------------------
    ' b' ~5 t% [9 L3 ^- Q◎种子下载地址" L; o  @( u$ d8 R0 l
    游客,如果您要查看本帖隐藏内容请回复

    3 @! F4 U9 c$ ^- i2 k, B6 @! t/ l+ z8 J! M8 j
    回复

    使用道具 举报

  • TA的每日心情
    慵懒
    2017-1-6 08:33
  • 签到天数: 8 天

    连续签到: 4 天

    [LV.3]偶尔看看II

    发表于 2017-1-4 10:04:24 | 显示全部楼层
    谢谢谢谢
    - e* X% ?- w: [3 Y" w$ u% I) o- R谢谢谢谢/ A4 e' ^4 x2 g' O
    谢谢谢谢4 m2 a7 J$ ^% M) b$ [7 c
    回复 支持 反对

    使用道具 举报

  • TA的每日心情
    开心
    4 天前
  • 签到天数: 19 天

    连续签到: 1 天

    [LV.4]偶尔看看III

    发表于 2017-1-4 10:23:28 | 显示全部楼层
    多谢分享,人生平淡
    8 v' S& k; _3 |* r
    [发帖际遇]: imis041 发帖时在路边捡到 3 蓝光币,偷偷放进了口袋. 幸运榜 / 衰神榜
    回复 支持 反对

    使用道具 举报

  • TA的每日心情
    开心
    2017-3-17 17:50
  • 签到天数: 27 天

    连续签到: 1 天

    [LV.4]偶尔看看III

    发表于 2017-1-4 10:28:03 | 显示全部楼层
    从简介上非常让我感兴趣 谢谢楼主
    7 H  J/ P* n0 ~$ l  a5 o4 ?; B2 K7 w  Q
    [发帖际遇]: freehytoo 乐于助人,奖励 2 蓝光币. 幸运榜 / 衰神榜
    回复 支持 反对

    使用道具 举报

  • TA的每日心情
    无聊
    2017-1-4 09:51
  • 签到天数: 1 天

    连续签到: 1 天

    [LV.1]初来乍到

    发表于 2017-1-4 10:29:05 | 显示全部楼层
    多谢分享,人生平淡" G# b
    回复 支持 反对

    使用道具 举报

  • TA的每日心情
    无聊
    2017-1-4 09:51
  • 签到天数: 1 天

    连续签到: 1 天

    [LV.1]初来乍到

    发表于 2017-1-4 10:35:13 | 显示全部楼层

    2 l) }" v" V( j1 f$ X: R* W) @下载来看看,感觉还可以
    [发帖际遇]: zjiewang 乐于助人,奖励 3 蓝光币. 幸运榜 / 衰神榜
    回复 支持 反对

    使用道具 举报

  • TA的每日心情
    奋斗
    前天 09:52
  • 签到天数: 214 天

    连续签到: 5 天

    [LV.7]常住居民III

    发表于 2017-1-4 11:03:23 | 显示全部楼层
    感谢楼主分享。
    . a+ y$ {2 A6 y4 E, V8 A- C
    回复 支持 反对

    使用道具 举报

  • TA的每日心情
    开心
    3 小时前
  • 签到天数: 137 天

    连续签到: 2 天

    [LV.7]常住居民III

    发表于 2017-1-4 11:26:59 | 显示全部楼层
    感谢楼主分享% y& h- X  A5 M+ X; c
    回复 支持 反对

    使用道具 举报

  • TA的每日心情
    无聊
    5 天前
  • 签到天数: 77 天

    连续签到: 1 天

    [LV.6]常住居民II

    发表于 2017-1-4 11:40:35 | 显示全部楼层
    感谢楼主分享!!!
    回复 支持 反对

    使用道具 举报

    您需要登录后才可以回帖 登录 | 立即加入

    本版积分规则

    您尚未登录,请登陆后浏览更精彩内容!
     立即加入
    找回密码

    QQ| 客服QQ:15608182|Archiver|手机版|小黑屋| 蓝光论坛  

    返回顶部
    x

    关注微信有机会赢取VIP资格

      

    Copyright © 2001-2013 Comsenz Inc.  Template by 蓝光电影论坛 All Rights Reserved.

    Powered by Discuz! X3.2( ICP备11019663号-4 )

    快速回复 返回顶部 返回列表