找回密码

蓝光电影论坛

查看: 3161|回复: 191

[喜剧] [2016][德国][喜剧][托尼·厄德曼/颠父人生][1080P-20.27G][MKV]DD5.1

  [复制链接]
  • TA的每日心情
    无聊
    2015-10-16 08:48
  • 签到天数: 5 天

    连续签到: 1 天

    [LV.2]偶尔看看I

     成长值: 9595

    发表于 2017-1-4 09:58:28 | 显示全部楼层 |阅读模式

    马上注册,获取最新影视资讯,享用更多功能,让你轻松玩转高清论坛。

    您需要 登录 才可以下载或查看,没有帐号?立即加入

    x
    [2016][德国][喜剧][托尼·厄德曼/颠父人生][1080P-20.27G][MKV]DD5.1
      T" h& |6 F3 D; c' O b.jpg   ?+ k0 F* K, L8 b
    ◎影片基本信息$ k% R4 q/ I% v6 }
    大小: 20.27G/ D: q: F, Z2 A& Z- g% T' O
    清晰度: 1080P
    1 u  v8 l! S5 ^3 Z视频: MKV9 p8 ~  K9 K6 X$ o/ h6 H3 h" Y7 R
    豆瓣评分: 7.7" z  U- I" N5 ~' N
    导演: 玛伦·阿德
    * T: I7 v: b4 ~' A4 x. x编剧: 玛伦·阿德
    . O. r) m$ n4 h主演: 彼得·西蒙尼舍克 / 桑德拉·惠勒 / 迈克尔·韦滕博恩 / 托马斯·洛伊布尔 / 特里斯坦·普特 / 哈德维奇·米尼斯 / 露西·拉塞尔 / 英格丽·比苏 / 弗拉德·伊凡诺夫 / 维多利亚·寇提亚斯 / 拉杜·班泽鲁 / 尼尔斯·伯曼 / 英格丽·伯克哈特) Z, ?8 L. G4 [6 R" z7 t" |
    类型: 剧情 / 喜剧" I$ O6 Y/ A1 L
    制片国家/地区: 德国 / 奥地利
    # E  z2 C5 W0 ^( U& k* z6 m语言: 德语 / 英语 / 罗马尼亚语- H- B% N  {3 H- y) g/ @4 H& o
    上映日期: 2016-05-14(戛纳电影节) / 2016-07-14(德国) / 2016-08-17(法国)
    ' `3 ?% ]; j9 Q# A$ E$ e片长: 162分钟4 f% C3 y, r. n6 v6 R
    又名: 颠父人生(台)
    / L& ?$ j8 w& v6 x影片: Toni.Erdmann.2016.GERMAN.1080p.BluRay.x264.DD5.1-EA

    $ C8 }7 W: v& n: Y◎剧情简介6 Q4 P/ J0 S% S- I' U4 b- r
           Inès在一家位于布加勒斯特的德国大型企业工作。她的生活一直井然有序,直到她的父亲Winfried突然造访,并向她提出了这个问题:“你幸福吗?”面对这个根本无法回答的问题,她的生活开始出现一系列翻天覆地的变化。她并不喜欢自己的父亲,甚至有点以他为耻,但他却通过捏造一个名叫Toni Erdmann的诙谐人物,试图为她的生活找到一个方向。/ J: d, ?5 e1 w9 G' L/ Z( {$ o

    # f7 {" @' a! y* \: E  Z-------------------------
    0 s3 [4 u& K' f
    1. Video
      7 z/ L' q* L! H( D$ H
    2. ID                                       : 1: k* W3 s4 ^8 v3 s1 {1 i2 y
    3. Format                                   : AVC; B' L% {: }7 D1 W, a
    4. Format/Info                              : Advanced Video Codec4 F  I. ?% K$ X' F; R1 g
    5. Format profile                           : High@L4.11 ?( q3 i% K) {0 H
    6. Format settings, CABAC                   : Yes
      & H) e3 J" f1 g0 a
    7. Format settings, ReFrames                : 4 frames
      8 T9 o1 e) K' M: k+ a
    8. Codec ID                                 : V_MPEG4/ISO/AVC1 V' F9 k1 e* ?; ~$ C, Z5 ^
    9. Duration                                 : 2h 42mn
      ( Q# V1 Z1 r2 w$ c3 w+ k& w
    10. Bit rate                                 : 17.2 Mbps0 f5 L% b& d# k' }
    11. Width                                    : 1 920 pixels
      + {7 x% r3 n- w% S' Q
    12. Height                                   : 1 040 pixels
      ) h- p$ \$ [/ B2 l$ Z2 ~0 f3 }
    13. Display aspect ratio                     : 1.85:1
      7 d0 U$ j) c" i' a: X: L$ q) |: L. K
    14. Frame rate mode                          : Constant5 g( n# ~3 ^0 _% @6 B% V  e
    15. Frame rate                               : 24.000 fps
      0 ], X3 N. r2 B% u8 j5 v# g
    16. Color space                              : YUV
      ! |& i8 Z5 [6 d5 h/ `6 S
    17. Chroma subsampling                       : 4:2:0, z* u) a5 O2 H2 v' l" W3 G
    18. Bit depth                                : 8 bits
      ' J0 ]  i1 T# T
    19. Scan type                                : Progressive3 j1 @! \& j2 v. z6 o" D) I9 z
    20. Bits/(Pixel*Frame)                       : 0.358$ |+ X4 r  i) d; G: o: A
    21. Stream size                              : 19.4 GiB (96%)
      % ^% l5 O( u% p: @1 L
    22. Title                                    : -EA
      0 Q* @. G: g5 _6 D. X$ O4 L$ r
    23. Writing library                          : x264 core 148 r2744+55 950084e t_mod_Custom [8-bit@all X86_64]
      ) `; t/ Y# J: x( T
    24. Encoding settings                        : cabac=1 / ref=4 / deblock=1:-3:-3 / analyse=0x3:0x113 / me=umh / subme=10 / psy=1 / fade_compensate=0.00 / psy_rd=1.04:0.00 / mixed_ref=1 / me_range=32 / chroma_me=1 / trellis=2 / 8x8dct=1 / cqm=0 / deadzone=21,11 / fast_pskip=0 / chroma_qp_offset=-2 / threads=24 / lookahead_threads=4 / sliced_threads=0 / nr=0 / decimate=0 / interlaced=0 / bluray_compat=0 / constrained_intra=0 / fgo=0 / bframes=7 / b_pyramid=2 / b_adapt=2 / b_bias=0 / direct=3 / weightb=1 / open_gop=0 / weightp=2 / keyint=240 / keyint_min=23 / scenecut=40 / intra_refresh=0 / rc_lookahead=60 / rc=crf / mbtree=0 / crf=18.0000 / qcomp=0.75 / qpmin=0:0:0 / qpmax=69:69:69 / qpstep=4 / vbv_maxrate=62500 / vbv_bufsize=78125 / crf_max=0.0 / nal_hrd=none / filler=0 / ip_ratio=1.30 / pb_ratio=1.20 / aq=3:0.80 / aq-sensitivity=10.00 / aq-factor=1.00:1.00:1.00 / aq2=1:0.70 / aq2-sensitivity=15.00 / aq2-factor=1.00:1.00:1.00 / aq3=1:[0.70:0.70]:[0.70:0.70]:[0.70:0.70]:[0.70:0.70] / aq3-sensitivity=10.00 / aq3-factor=[1.00:1.00]:[1.00:1.00]:[1.00:1.00] / aq3-boundary=192:64:24( g- Z6 f- j, R; K# H
    25. Language                                 : German
      % O# F  e' ^. K( J
    26. Default                                  : Yes9 v3 o8 k) a8 d; O2 [# h" T9 ~, V2 T, q
    27. Forced                                   : No
      ( ]7 p8 k! h% [" [
    28. Color range                              : Limited8 |8 K% p) q; p: e  o
    29. Color primaries                          : BT.709
      " m' E7 U" @* h9 X! o
    30. Transfer characteristics                 : BT.7098 p& B5 C+ V) t* G! w
    31. Matrix coefficients                      : BT.709
      , ^6 U' D: r1 k9 Y

    32. 2 ^- |8 Y. H7 u7 E! m0 V, a% S
    33. Audio #1' Y: e4 I. y9 v" v" N
    34. ID                                       : 2, W7 e; H2 q4 z* k4 E$ c
    35. Format                                   : AC-3" t: o8 `: D3 T6 y" m) I
    36. Format/Info                              : Audio Coding 3
      * T4 C  k& L  i& L5 ^
    37. Mode extension                           : CM (complete main)
      2 J' L& ^5 o& h- c7 I- \
    38. Format settings, Endianness              : Big
      2 D$ l1 g+ ]0 H  c2 H- m
    39. Codec ID                                 : A_AC3
        T) I0 ]2 l  U# J1 k+ f' z) T
    40. Duration                                 : 2h 42mn
      7 n. W/ r% o8 q' l
    41. Bit rate mode                            : Constant8 P% ?7 R5 G% r  C
    42. Bit rate                                 : 640 Kbps' V+ a8 `0 X+ f: P3 K8 x+ J3 ?- y
    43. Channel(s)                               : 6 channels5 U3 o: h/ U' ?; a3 b( |8 h
    44. Channel positions                        : Front: L C R, Side: L R, LFE. v4 H- ]5 y. r% u- o: C& x3 S
    45. Sampling rate                            : 48.0 KHz
      5 i) b! t& Z8 {' j, E' v
    46. Frame rate                               : 31.250 fps (1536 spf)
      3 c/ g( U) G/ S% \' I4 s
    47. Compression mode                         : Lossy
      % p" ~! U: a' o7 \$ u4 d
    48. Stream size                              : 743 MiB (4%)
      " T2 F9 J  B0 T3 @) m; Z5 i
    49. Language                                 : German: Q7 m( m. _6 j
    50. Default                                  : Yes
      , U( D  c: s  z; d$ i
    51. Forced                                   : Yes2 C( c! Y5 s/ e# F9 \2 c

    52. * O) e: @- x1 @( U
    53. Audio #2
      & e! G$ E5 R5 J( R( c
    54. ID                                       : 3" j$ J1 |0 n* X3 a" E
    55. Format                                   : AAC" |- _" i0 ~1 i( w) G
    56. Format/Info                              : Advanced Audio Codec
      , N% {+ l' G) I5 B$ N# k, `
    57. Format profile                           : HE-AAC / LC
      * s3 C, O  L* K$ J7 t+ h
    58. Codec ID                                 : A_AAC  D! n! |& b/ v  ]+ q# d
    59. Duration                                 : 2h 42mn
      ! y$ }* G4 l5 [; s" Q8 W
    60. Bit rate                                 : 64.0 Kbps1 ~" [- e7 |3 f
    61. Channel(s)                               : 2 channels' W4 f! V) O) ^% Q" i6 V2 x& n
    62. Channel positions                        : Front: L R
      0 H1 k% F' q' t4 G6 ^
    63. Sampling rate                            : 48.0 KHz / 24.0 KHz
      ( d3 T! N3 l$ g$ o3 v0 E4 c
    64. Frame rate                               : 23.438 fps (1024 spf)' L3 P* R: d# p  y, U
    65. Compression mode                         : Lossy+ H& s/ B2 n  f/ W
    66. Delay relative to video                  : 31ms; H& g  o' k  G4 b/ e; ?
    67. Stream size                              : 74.3 MiB (0%)
      $ L7 M+ _. K1 L' `' X
    68. Title                                    : Commentary with M. Ade, S. Hüller, P. Simonischek: p1 |, A5 _6 K: ]
    69. Language                                 : German% D  F5 [1 c6 H; w; P& C
    70. Default                                  : No  R7 y8 V/ i+ A2 R" x( J5 ~
    71. Forced                                   : No- j( b3 {  A" J% N( c7 \

    72. : |: v/ @7 g1 x
    73. Text #1# ?' b: m' @+ Y/ h$ g
    74. ID                                       : 4
      - H9 Z5 J5 `7 ?# w7 N2 p, C
    75. Format                                   : UTF-8  @4 z. o1 }: y6 s. ~
    76. Codec ID                                 : S_TEXT/UTF85 d6 M, d2 J) ]
    77. Codec ID/Info                            : UTF-8 Plain Text% g  c( T' X4 ?$ z7 L# A
    78. Duration                                 : 2h 40mn
      # u+ Z/ N$ ~" H6 _' k9 T7 q
    79. Bit rate                                 : 22 bps3 d" [  B$ z  t8 N
    80. Count of elements                        : 869
      9 V  w) E2 F& c- a6 ]5 K
    81. Stream size                              : 26.6 KiB (0%)% x5 d& A( i+ T" l4 _  A; q' k& u
    82. Title                                    : srt
      * r" s: N) D0 v& V
    83. Language                                 : English
      ) z; R0 E/ Y' z2 T
    84. Default                                  : Yes
      8 F& e" L9 {. s5 U
    85. Forced                                   : Yes; l1 F, ?" k! r& y9 n9 D1 @6 ]
    86. 5 }: N/ K& c" ]5 O
    87. Text #2: F" {- x3 |4 ~% g. Q1 E/ {
    88. ID                                       : 5; [: n& N1 g0 S1 n% ^9 ~5 A% a& J1 E
    89. Format                                   : PGS( Y" P( ?, d6 u6 g% R
    90. Muxing mode                              : zlib2 l/ ^1 P2 f+ S3 p+ N
    91. Codec ID                                 : S_HDMV/PGS
      ' F! B2 a. |, C# j+ O5 y! d0 E. G
    92. Codec ID/Info                            : Picture based subtitle format used on BDs/HD-DVDs. f$ M! b& z" G' m
    93. Duration                                 : 2h 23mn) h; y; S# h2 F5 C) A; r/ ^$ G* L  I( |3 T
    94. Bit rate                                 : 6 306 bps
      8 p3 n5 x$ {$ [$ C
    95. Count of elements                        : 1024
      ( p2 {, E% z$ I" @4 A- O4 b
    96. Stream size                              : 6.47 MiB (0%)
      6 v! q9 Y& u$ w" Z, V( b- y3 `
    97. Title                                    : sup/ o3 P! I: H+ Y& U3 z$ e
    98. Language                                 : German: I- j2 q0 ]; j1 H* o, n; R* l; N
    99. Default                                  : No
      # b4 }# l+ ^7 T. w3 v% l. |: ]% b
    100. Forced                                   : No
      8 n# W" S( j: A

    101. & U  a9 U# d: P4 L
    102. Text #3' I' L* h( a2 l: \1 i
    103. ID                                       : 6+ r: V& h, B9 G
    104. Format                                   : PGS" b1 B- A7 q1 ?. V
    105. Muxing mode                              : zlib
      ; h, }3 [% F* y+ u* J
    106. Codec ID                                 : S_HDMV/PGS
      ' J$ x0 Z( Y; \2 f7 M) ^
    107. Codec ID/Info                            : Picture based subtitle format used on BDs/HD-DVDs: O  o- e. M. q5 K8 m, e" f
    108. Duration                                 : 2h 41mn, h" B* t* a1 V4 p
    109. Bit rate                                 : 19.9 Kbps3 v8 U2 \" |3 Q
    110. Count of elements                        : 3626* A9 E; G" Q0 Y$ Z' E" `
    111. Stream size                              : 23.0 MiB (0%)
      5 L% I6 O  }* }9 A8 k) W
    112. Title                                    : sup HoH, V2 a8 b4 v6 ?0 \$ a4 `" H: _+ l
    113. Language                                 : German
      ) f$ C$ ~+ Y9 ~7 `6 l; d
    114. Default                                  : No; d5 j3 I, W/ C- q9 ?4 m) M) j
    115. Forced                                   : No) P+ J1 Z' ^8 B, p; S* V& @
    116. 5 z* t2 o8 C6 }& z# g9 g( i! x
    117. Menu #1" S$ g4 Q8 ?8 C9 B# |  s- n
    118. 00:00:00.000                             : en:00:00:00.000
      - m9 U6 o: O4 |) E! e" m
    119. 00:09:06.625                             : en:00:09:06.625
      1 f/ x0 c$ ?4 H1 V8 b- c
    120. 00:18:02.917                             : en:00:18:02.917
      " U! l/ E( J7 Y" i8 p7 O( p
    121. 00:36:33.833                             : en:00:36:33.833* z0 @4 ?' }! ^( ?
    122. 00:52:43.833                             : en:00:52:43.8337 }, w1 u; T1 }( V' ?* A; ^3 ?
    123. 01:11:32.167                             : en:01:11:32.167
      $ e7 O% z# p, O) U
    124. 01:36:39.917                             : en:01:36:39.917
      6 q, \& O3 o' f7 D7 O( \+ W
    125. 02:06:09.958                             : en:02:06:09.958
      3 m. E8 a- F- V  J
    126. 02:27:28.958                             : en:02:27:28.9585 k, h# }* K+ `, ?) C4 d
    127. - H5 Q( z) l5 g9 F
    128. Menu #20 I3 j" i2 A- t3 u( m  _
    129. 00:00:00.097                             : en:00:00:00.097$ Y5 L( a8 P0 c" Y, ^
    复制代码

    2 O8 n9 G% v$ ?/ M4 G-------------------------
    4 U2 p9 @' d6 u; D2 F$ [◎精彩剧照. t3 N; O: b1 V2 O
    ! Q# L  A" |/ l- i2 ^
    -------------------------
    * @& I, ?  I- W3 e% I( j" k: d: ^8 H[以上高清电影剧照来自互联网,不代表此片高清剧照]
    8 b; \2 v) T1 `5 F9 D6 m郑重声明:本站提供的所有高清电影作品均是在网上搜集,任何涉及商业盈利目的均不得使用,否则产生的一切后果将由您自己承担!本站将不对本站的任何内容负任何法律责任!该下载内容仅做宽带测试使用,请在下载后24小时内删除。请购买正
    版!
    , e3 Q" }+ u3 ^* r. I- ~-------------------------# `5 Y9 r2 q3 N/ U# ^* g# ?
    ◎种子下载地址
    3 g+ e- _1 c4 Q7 }/ D
    游客,如果您要查看本帖隐藏内容请回复

    3 b0 E4 C. M8 v/ q$ ~& q; b0 E  Z9 @8 E8 P) N# o6 d: E
    回复

    使用道具 举报

  • TA的每日心情
    慵懒
    2017-1-6 08:33
  • 签到天数: 8 天

    连续签到: 4 天

    [LV.3]偶尔看看II

    发表于 2017-1-4 10:04:24 | 显示全部楼层
    谢谢谢谢
    7 B) I) P0 O: w( }谢谢谢谢
    ( u6 `# i% c, a谢谢谢谢
    7 P; S9 l- ?+ h" C; d* O
    回复 支持 反对

    使用道具 举报

  • TA的每日心情
    开心
    昨天 22:35
  • 签到天数: 39 天

    连续签到: 1 天

    [LV.5]常住居民I

    发表于 2017-1-4 10:23:28 | 显示全部楼层
    多谢分享,人生平淡
    1 R3 ^, ~" D! H/ u; ^
    [发帖际遇]: imis041 发帖时在路边捡到 3 蓝光币,偷偷放进了口袋. 幸运榜 / 衰神榜
    回复 支持 反对

    使用道具 举报

  • TA的每日心情
    奋斗
    3 天前
  • 签到天数: 62 天

    连续签到: 1 天

    [LV.6]常住居民II

    发表于 2017-1-4 10:28:03 | 显示全部楼层
    从简介上非常让我感兴趣 谢谢楼主' W9 o8 g* T  f9 s; Z# t5 m
    7 X2 F/ ^: x2 j: V" E
    [发帖际遇]: freehytoo 乐于助人,奖励 2 蓝光币. 幸运榜 / 衰神榜
    回复 支持 反对

    使用道具 举报

  • TA的每日心情
    无聊
    2017-1-4 09:51
  • 签到天数: 1 天

    连续签到: 1 天

    [LV.1]初来乍到

    发表于 2017-1-4 10:29:05 | 显示全部楼层
    多谢分享,人生平淡" G# b
    回复 支持 反对

    使用道具 举报

  • TA的每日心情
    无聊
    2017-1-4 09:51
  • 签到天数: 1 天

    连续签到: 1 天

    [LV.1]初来乍到

    发表于 2017-1-4 10:35:13 | 显示全部楼层

    5 t! w" o; e1 C4 _下载来看看,感觉还可以
    [发帖际遇]: zjiewang 乐于助人,奖励 3 蓝光币. 幸运榜 / 衰神榜
    回复 支持 反对

    使用道具 举报

  • TA的每日心情
    擦汗
    2017-7-16 21:06
  • 签到天数: 258 天

    连续签到: 1 天

    [LV.8]以坛为家I

    发表于 2017-1-4 11:03:23 | 显示全部楼层
    感谢楼主分享。
    & M' F0 N# k" Y0 R. J
    回复 支持 反对

    使用道具 举报

  • TA的每日心情
    开心
    昨天 22:03
  • 签到天数: 177 天

    连续签到: 2 天

    [LV.7]常住居民III

    发表于 2017-1-4 11:26:59 | 显示全部楼层
    感谢楼主分享6 G/ U0 A, M' J3 ^( Z
    回复 支持 反对

    使用道具 举报

  • TA的每日心情
    郁闷
    前天 11:51
  • 签到天数: 94 天

    连续签到: 1 天

    [LV.6]常住居民II

    发表于 2017-1-4 11:40:35 | 显示全部楼层
    感谢楼主分享!!!
    回复 支持 反对

    使用道具 举报

    您需要登录后才可以回帖 登录 | 立即加入

    本版积分规则

    您尚未登录,请登陆后浏览更精彩内容!
     立即加入
    找回密码

    QQ| 客服QQ:15608182|如有侵权内容请联系:www1080net#qq.com 我们会及时删除|Archiver|手机版| 蓝光论坛  

    返回顶部
    x

    关注微信 不迷路

    Copyright © 2001-2013 Comsenz Inc.  Template by 蓝光电影论坛 All Rights Reserved.

    Powered by Discuz! X3.2( ICP备11019663号-4 )

    快速回复 返回顶部 返回列表